eztv1.xyz | eztvstatus.org
Search title:  
TV Packs only
 

Drops of God 2023 S01E03 Duel 720p ATVP WEBRip DDP5 1 x264-NTb EZTV

Episode Breakdown
Drops of God
Drops of God TV Show S01E03

Season: 1
Episode: 3
Air Date: 28 April, 2023
Download Links
     Torrent Download     Magnet Download
     Anonymous Download
Added 1 year ago by eztv (verified).
Tracker Statistics
Seeds: 5
Peers: 0
Stats generated @ 16:57 on 16th Jul 2024
Torrent Info
Torrent File: Drops.of.God.2023.S01E03.Duel.720p.ATVP.WEB-DL.DDP5.1.H.264-NTb[eztv.re].mkv
Torrent Hash: 573658390214623C6CDE20C49C4224C313D27BAA
Filesize: 1.34 GB
Released: 27th Apr 2023

File Format: MKV (Matroska)
Resolution: 1280x720 px
Aspect Ratio: 16:9
Alternate Releases S L
Drops of God 2023 S01E03 1080p WEB H264-GGWP 5 1
Drops of God 2023 S01E03 Duel 1080p ATVP WEBRip DDP5 1 x264-NTb 1 1
Drops of God 2023 S01E03 1080p HEVC x265-MeGusta 13 4
Drops of God 2023 S01E03 XviD-AFG 5 1
Drops of God 2023 S01E03 MULTI 1080p WEB H264-HiggsBoson 8 0

Drops of God S01E03 - Duel

Summary:

Issei gives a journalist stunning information about the competition. Camille thinks she's found the first wine, but verifying it is risky.



Drops of God 2023 S01E03 Duel 720p ATVP WEBRip DDP5 1 x264-NTb EZTV
Drops of God S1E3 Screenshot


General
Unique ID: 99043077158558222571359548566968730562 (0x4A8300B80D00F968ED6FC4B10E7803C2)
Complete name: Drops.of.God.2023.S01E03.Duel.720p.ATVP.WEB-DL.DDP5.1.H.264-NTb.mkv
Format: Matroska
Format version: Version 4
File size: 1.34 GiB
Duration: 52 min 55 s
Overall bit rate: 3 613 kb/s
Writing application: mkvmerge v75.0.0 ('Goliath') 64-bit
Writing library: libebml v1.4.4 + libmatroska v1.7.1

Video
ID: 1
Format: AVC
Format/Info: Advanced Video Codec
Format profile: [email protected]
Format settings: CABAC / 5 Ref Frames
Format settings, CABAC: Yes
Format settings, Reference frames: 5 frames
Codec ID: V_MPEG4/ISO/AVC
Duration: 52 min 55 s
Bit rate: 2 839 kb/s
Width: 1 480 pixels
Height: 620 pixels
Display aspect ratio: 2.40:1
Frame rate mode: Constant
Frame rate: 23.976 (24000/1001) FPS
Color space: YUV
Chroma subsampling: 4:2:0
Bit depth: 8 bits
Scan type: Progressive
Bits/(Pixel*Frame): 0.129
Stream size: 1.05 GiB (79%)
Default: Yes
Forced: No
Color range: Limited
Color primaries: BT.709
Transfer characteristics: BT.709
Matrix coefficients: BT.709

Audio
ID: 2
Format: E-AC-3 JOC
Format/Info: Enhanced AC-3 with Joint Object Coding
Commercial name: Dolby Digital Plus with Dolby Atmos
Codec ID: A_EAC3
Duration: 52 min 55 s
Bit rate mode: Constant
Bit rate: 768 kb/s
Channel(s): 6 channels
Channel layout: L R C LFE Ls Rs
Sampling rate: 48.0 kHz
Frame rate: 31.250 FPS (1536 SPF)
Compression mode: Lossy
Stream size: 291 MiB (21%)
Title: French (France)
Language: French (FR)
Service kind: Complete Main
Default: Yes
Forced: No
Complexity index: 16
Number of dynamic objects: 15
Bed channel count: 1 channel
Bed channel configuration: LFE

Text #1
ID: 3
Format: UTF-8
Codec ID: S_TEXT/UTF8
Codec ID/Info: UTF-8 Plain Text
Duration: 51 min 17 s
Bit rate: 27 b/s
Frame rate: 0.120 FPS
Count of elements: 370
Stream size: 10.3 KiB (0%)
Title: French (France) (Forced)
Language: French (FR)
Default: Yes
Forced: Yes

Text #2
ID: 4
Format: UTF-8
Codec ID: S_TEXT/UTF8
Codec ID/Info: UTF-8 Plain Text
Duration: 52 min 13 s
Bit rate: 43 b/s
Frame rate: 0.184 FPS
Count of elements: 578
Stream size: 16.6 KiB (0%)
Title: French (France)
Language: French (FR)
Default: No
Forced: No

Text #3
ID: 5
Format: UTF-8
Codec ID: S_TEXT/UTF8
Codec ID/Info: UTF-8 Plain Text
Duration: 52 min 13 s
Bit rate: 48 b/s
Frame rate: 0.199 FPS
Count of elements: 623
Stream size: 18.4 KiB (0%)
Title: French (France) (SDH)
Language: French (FR)
Default: No
Forced: No

Text #4
ID: 6
Format: UTF-8
Codec ID: S_TEXT/UTF8
Codec ID/Info: UTF-8 Plain Text
Duration: 51 min 18 s
Bit rate: 44 b/s
Frame rate: 0.178 FPS
Count of elements: 548
Stream size: 16.9 KiB (0%)
Language: English
Default: No
Forced: No

Text #5
ID: 7
Format: UTF-8
Codec ID: S_TEXT/UTF8
Codec ID/Info: UTF-8 Plain Text
Duration: 51 min 18 s
Bit rate: 53 b/s
Frame rate: 0.200 FPS
Count of elements: 616
Stream size: 20.0 KiB (0%)
Title: SDH
Language: English
Default: No
Forced: No

Text #6
ID: 8
Format: UTF-8
Codec ID: S_TEXT/UTF8
Codec ID/Info: UTF-8 Plain Text
Duration: 52 min 12 s
Bit rate: 62 b/s
Frame rate: 0.176 FPS
Count of elements: 551
Stream size: 23.9 KiB (0%)
Language: Arabic
Default: No
Forced: No

Text #7
ID: 9
Format: UTF-8
Codec ID: S_TEXT/UTF8
Codec ID/Info: UTF-8 Plain Text
Duration: 52 min 12 s
Bit rate: 70 b/s
Frame rate: 0.144 FPS
Count of elements: 450
Stream size: 27.1 KiB (0%)
Language: Bulgarian
Default: No
Forced: No

Text #8
ID: 10
Format: UTF-8
Codec ID: S_TEXT/UTF8
Codec ID/Info: UTF-8 Plain Text
Duration: 52 min 12 s
Bit rate: 42 b/s
Frame rate: 0.178 FPS
Count of elements: 558
Stream size: 16.2 KiB (0%)
Title: Chinese (Simplified)
Language: Mandarin (Hans)
Default: No
Forced: No

Text #9
ID: 11
Format: UTF-8
Codec ID: S_TEXT/UTF8
Codec ID/Info: UTF-8 Plain Text
Duration: 52 min 12 s
Bit rate: 38 b/s
Frame rate: 0.178 FPS
Count of elements: 558
Stream size: 14.8 KiB (0%)
Title: Chinese (Traditional)
Language: Mandarin (Hant)
Default: No
Forced: No

Text #10
ID: 12
Format: UTF-8
Codec ID: S_TEXT/UTF8
Codec ID/Info: UTF-8 Plain Text
Duration: 52 min 12 s
Bit rate: 41 b/s
Frame rate: 0.166 FPS
Count of elements: 520
Stream size: 15.8 KiB (0%)
Language: Czech
Default: No
Forced: No

Text #11
ID: 13
Format: UTF-8
Codec ID: S_TEXT/UTF8
Codec ID/Info: UTF-8 Plain Text
Duration: 52 min 12 s
Bit rate: 40 b/s
Frame rate: 0.144 FPS
Count of elements: 451
Stream size: 15.5 KiB (0%)
Language: Danish
Default: No
Forced: No

Text #12
ID: 14
Format: UTF-8
Codec ID: S_TEXT/UTF8
Codec ID/Info: UTF-8 Plain Text
Duration: 52 min 14 s
Bit rate: 45 b/s
Frame rate: 0.172 FPS
Count of elements: 540
Stream size: 17.4 KiB (0%)
Language: German
Default: No
Forced: No

Text #13
ID: 15
Format: UTF-8
Codec ID: S_TEXT/UTF8
Codec ID/Info: UTF-8 Plain Text
Duration: 52 min 12 s
Bit rate: 76 b/s
Frame rate: 0.171 FPS
Count of elements: 535
Stream size: 29.2 KiB (0%)
Language: Greek
Default: No
Forced: No

Text #14
ID: 16
Format: UTF-8
Codec ID: S_TEXT/UTF8
Codec ID/Info: UTF-8 Plain Text
Duration: 52 min 12 s
Bit rate: 43 b/s
Frame rate: 0.175 FPS
Count of elements: 549
Stream size: 16.5 KiB (0%)
Title: Spanish (Latin America)
Language: Spanish (Latin America)
Default: No
Forced: No

Text #15
ID: 17
Format: UTF-8
Codec ID: S_TEXT/UTF8
Codec ID/Info: UTF-8 Plain Text
Duration: 52 min 12 s
Bit rate: 44 b/s
Frame rate: 0.178 FPS
Count of elements: 557
Stream size: 17.1 KiB (0%)
Title: Spanish (Spain)
Language: Spanish (ES)
Default: No
Forced: No

Text #16
ID: 18
Format: UTF-8
Codec ID: S_TEXT/UTF8
Codec ID/Info: UTF-8 Plain Text
Duration: 52 min 12 s
Bit rate: 40 b/s
Frame rate: 0.171 FPS
Count of elements: 537
Stream size: 15.6 KiB (0%)
Language: Estonian
Default: No
Forced: No

Text #17
ID: 19
Format: UTF-8
Codec ID: S_TEXT/UTF8
Codec ID/Info: UTF-8 Plain Text
Duration: 52 min 12 s
Bit rate: 42 b/s
Frame rate: 0.165 FPS
Count of elements: 516
Stream size: 16.3 KiB (0%)
Language: Finnish
Default: No
Forced: No

Text #18
ID: 20
Format: UTF-8
Codec ID: S_TEXT/UTF8
Codec ID/Info: UTF-8 Plain Text
Duration: 52 min 13 s
Bit rate: 43 b/s
Frame rate: 0.184 FPS
Count of elements: 578
Stream size: 16.6 KiB (0%)
Title: French (Canada)
Language: French (CA)
Default: No
Forced: No

Text #19
ID: 21
Format: UTF-8
Codec ID: S_TEXT/UTF8
Codec ID/Info: UTF-8 Plain Text
Duration: 52 min 12 s
Bit rate: 58 b/s
Frame rate: 0.176 FPS
Count of elements: 552
Stream size: 22.6 KiB (0%)
Language: Hebrew
Default: No
Forced: No

Text #20
ID: 22
Format: UTF-8
Codec ID: S_TEXT/UTF8
Codec ID/Info: UTF-8 Plain Text
Duration: 52 min 12 s
Bit rate: 123 b/s
Frame rate: 0.177 FPS
Count of elements: 555
Stream size: 47.1 KiB (0%)
Language: Hindi
Default: No
Forced: No

Text #21
ID: 23
Format: UTF-8
Codec ID: S_TEXT/UTF8
Codec ID/Info: UTF-8 Plain Text
Duration: 52 min 12 s
Bit rate: 45 b/s
Frame rate: 0.175 FPS
Count of elements: 548
Stream size: 17.2 KiB (0%)
Language: Hungarian
Default: No
Forced: No

Text #22
ID: 24
Format: UTF-8
Codec ID: S_TEXT/UTF8
Codec ID/Info: UTF-8 Plain Text
Duration: 52 min 12 s
Bit rate: 44 b/s
Frame rate: 0.176 FPS
Count of elements: 551
Stream size: 17.0 KiB (0%)
Language: Indonesian
Default: No
Forced: No

Text #23
ID: 25
Format: UTF-8
Codec ID: S_TEXT/UTF8
Codec ID/Info: UTF-8 Plain Text
Duration: 52 min 15 s
Bit rate: 47 b/s
Frame rate: 0.192 FPS
Count of elements: 602
Stream size: 18.2 KiB (0%)
Language: Italian
Default: No
Forced: No

Text #24
ID: 26
Format: UTF-8
Codec ID: S_TEXT/UTF8
Codec ID/Info: UTF-8 Plain Text
Duration: 52 min 2 s
Bit rate: 45 b/s
Frame rate: 0.175 FPS
Count of elements: 547
Stream size: 17.5 KiB (0%)
Language: Japanese
Default: No
Forced: No

Text #25
ID: 27
Format: UTF-8
Codec ID: S_TEXT/UTF8
Codec ID/Info: UTF-8 Plain Text
Duration: 52 min 12 s
Bit rate: 47 b/s
Frame rate: 0.178 FPS
Count of elements: 559
Stream size: 18.1 KiB (0%)
Language: Korean
Default: No
Forced: No

Text #26
ID: 28
Format: UTF-8
Codec ID: S_TEXT/UTF8
Codec ID/Info: UTF-8 Plain Text
Duration: 52 min 12 s
Bit rate: 44 b/s
Frame rate: 0.176 FPS
Count of elements: 550
Stream size: 17.1 KiB (0%)
Language: Lithuanian
Default: No
Forced: No

Text #27
ID: 29
Format: UTF-8
Codec ID: S_TEXT/UTF8
Codec ID/Info: UTF-8 Plain Text
Duration: 52 min 12 s
Bit rate: 44 b/s
Frame rate: 0.173 FPS
Count of elements: 543
Stream size: 17.1 KiB (0%)
Language: Latvian
Default: No
Forced: No

Text #28
ID: 30
Format: UTF-8
Codec ID: S_TEXT/UTF8
Codec ID/Info: UTF-8 Plain Text
Duration: 52 min 12 s
Bit rate: 43 b/s
Frame rate: 0.176 FPS
Count of elements: 551
Stream size: 16.5 KiB (0%)
Language: Malay
Default: No
Forced: No

Text #29
ID: 31
Format: UTF-8
Codec ID: S_TEXT/UTF8
Codec ID/Info: UTF-8 Plain Text
Duration: 52 min 12 s
Bit rate: 43 b/s
Frame rate: 0.138 FPS
Count of elements: 433
Stream size: 16.6 KiB (0%)
Language: Dutch
Default: No
Forced: No

Text #30
ID: 32
Format: UTF-8
Codec ID: S_TEXT/UTF8
Codec ID/Info: UTF-8 Plain Text
Duration: 52 min 12 s
Bit rate: 41 b/s
Frame rate: 0.155 FPS
Count of elements: 484
Stream size: 15.7 KiB (0%)
Language: Norwegian
Default: No
Forced: No

Text #31
ID: 33
Format: UTF-8
Codec ID: S_TEXT/UTF8
Codec ID/Info: UTF-8 Plain Text
Duration: 52 min 12 s
Bit rate: 43 b/s
Frame rate: 0.176 FPS
Count of elements: 550
Stream size: 16.7 KiB (0%)
Language: Polish
Default: No
Forced: No

Text #32
ID: 34
Format: UTF-8
Codec ID: S_TEXT/UTF8
Codec ID/Info: UTF-8 Plain Text
Duration: 52 min 12 s
Bit rate: 43 b/s
Frame rate: 0.176 FPS
Count of elements: 551
Stream size: 16.7 KiB (0%)
Title: Portuguese
Language: Portuguese
Default: No
Forced: No

Text #33
ID: 35
Format: UTF-8
Codec ID: S_TEXT/UTF8
Codec ID/Info: UTF-8 Plain Text
Duration: 52 min 12 s
Bit rate: 40 b/s
Frame rate: 0.176 FPS
Count of elements: 552
Stream size: 15.6 KiB (0%)
Title: Portuguese (Brazil)
Language: Portuguese (BR)
Default: No
Forced: No

Text #34
ID: 36
Format: UTF-8
Codec ID: S_TEXT/UTF8
Codec ID/Info: UTF-8 Plain Text
Duration: 52 min 14 s
Bit rate: 69 b/s
Frame rate: 0.180 FPS
Count of elements: 565
Stream size: 26.5 KiB (0%)
Language: Russian
Default: No
Forced: No

Text #35
ID: 37
Format: UTF-8
Codec ID: S_TEXT/UTF8
Codec ID/Info: UTF-8 Plain Text
Duration: 52 min 12 s
Bit rate: 42 b/s
Frame rate: 0.176 FPS
Count of elements: 552
Stream size: 16.2 KiB (0%)
Language: Slovak
Default: No
Forced: No

Text #36
ID: 38
Format: UTF-8
Codec ID: S_TEXT/UTF8
Codec ID/Info: UTF-8 Plain Text
Duration: 52 min 12 s
Bit rate: 36 b/s
Frame rate: 0.148 FPS
Count of elements: 465
Stream size: 13.9 KiB (0%)
Language: Slovenian
Default: No
Forced: No

Text #37
ID: 39
Format: UTF-8
Codec ID: S_TEXT/UTF8
Codec ID/Info: UTF-8 Plain Text
Duration: 52 min 12 s
Bit rate: 43 b/s
Frame rate: 0.176 FPS
Count of elements: 550
Stream size: 16.7 KiB (0%)
Language: Swedish
Default: No
Forced: No

Text #38
ID: 40
Format: UTF-8
Codec ID: S_TEXT/UTF8
Codec ID/Info: UTF-8 Plain Text
Duration: 52 min 12 s
Bit rate: 133 b/s
Frame rate: 0.177 FPS
Count of elements: 554
Stream size: 51.2 KiB (0%)
Language: Tamil
Default: No
Forced: No

Text #39
ID: 41
Format: UTF-8
Codec ID: S_TEXT/UTF8
Codec ID/Info: UTF-8 Plain Text
Duration: 52 min 12 s
Bit rate: 135 b/s
Frame rate: 0.177 FPS
Count of elements: 554
Stream size: 51.8 KiB (0%)
Language: Telugu
Default: No
Forced: No

Text #40
ID: 42
Format: UTF-8
Codec ID: S_TEXT/UTF8
Codec ID/Info: UTF-8 Plain Text
Duration: 52 min 12 s
Bit rate: 107 b/s
Frame rate: 0.178 FPS
Count of elements: 558
Stream size: 41.0 KiB (0%)
Language: Thai
Default: No
Forced: No

Text #41
ID: 43
Format: UTF-8
Codec ID: S_TEXT/UTF8
Codec ID/Info: UTF-8 Plain Text
Duration: 52 min 12 s
Bit rate: 44 b/s
Frame rate: 0.174 FPS
Count of elements: 545
Stream size: 17.1 KiB (0%)
Language: Turkish
Default: No
Forced: No

Text #42
ID: 44
Format: UTF-8
Codec ID: S_TEXT/UTF8
Codec ID/Info: UTF-8 Plain Text
Duration: 52 min 12 s
Bit rate: 69 b/s
Frame rate: 0.178 FPS
Count of elements: 559
Stream size: 26.7 KiB (0%)
Language: Ukrainian
Default: No
Forced: No

Text #43
ID: 45
Format: UTF-8
Codec ID: S_TEXT/UTF8
Codec ID/Info: UTF-8 Plain Text
Duration: 52 min 12 s
Bit rate: 55 b/s
Frame rate: 0.177 FPS
Count of elements: 553
Stream size: 21.4 KiB (0%)
Language: Vietnamese
Default: No
Forced: No

Text #44
ID: 46
Format: UTF-8
Codec ID: S_TEXT/UTF8
Codec ID/Info: UTF-8 Plain Text
Duration: 52 min 12 s
Bit rate: 35 b/s
Frame rate: 0.178 FPS
Count of elements: 558
Stream size: 13.7 KiB (0%)
Title: Cantonese (Traditional)
Language: Cantonese (Hant)
Default: No
Forced: No
ssl  EZTV RSS EZTV Status | EZTV API | DMCA: [email protected]