eztv1.xyz | eztvstatus.org
Search title:  
TV Packs only
 

Drops of God 2023 S01E05 The Link 720p ATVP WEBRip DDP5 1 x264-NTb EZTV

Episode Breakdown
Drops of God
Drops of God TV Show S01E05

Season: 1
Episode: 5
Air Date: 12 May, 2023
Download Links
     Torrent Download     Magnet Download
     Anonymous Download
Added 1 year ago by eztv (verified).
Tracker Statistics
Seeds: 0
Peers: 2
Stats generated @ 04:15 on 21st Jul 2024
Torrent Info
Torrent File: Drops.of.God.2023.S01E05.The.Link.720p.ATVP.WEB-DL.DDP5.1.H.264-NTb[eztv.re].mkv
Torrent Hash: E1EFF17F0BD86082737216CD03D7A2219A81639B
Filesize: 1.34 GB
Released: 12th May 2023

File Format: MKV (Matroska)
Resolution: 1280x720 px
Aspect Ratio: 16:9
Alternate Releases S L
Drops of God S01E05 1080p HEVC x265-MeGusta 10 1
Drops of God S01E05 XviD-AFG 8 1
Drops of God S01E05 1080p WEB H264-GGEZ 8 2
Drops of God 2023 S01E05 The Link 1080p ATVP WEBRip DDP5 1 x264-NTb 8 2
Drops of God 2023 S01E05 MULTI 1080p WEB H264-HiggsBoson 10 1

Drops of God S01E05 - The Link

Summary:

Issei and Camille puzzle over the second test, which involves a 17th-century painting and mysterious one-word clue.



Drops of God 2023 S01E05 The Link 720p ATVP WEBRip DDP5 1 x264-NTb EZTV
Drops of God S1E5 Screenshot


General
Unique ID: 323528800441826457249053688845658754106 (0xF36561661B1042730162BA2DDBC80C3A)
Complete name: Drops.of.God.2023.S01E05.The.Link.720p.ATVP.WEB-DL.DDP5.1.H.264-NTb.mkv
Format: Matroska
Format version: Version 4
File size: 1.34 GiB
Duration: 52 min 56 s
Overall bit rate: 3 633 kb/s
Writing application: mkvmerge v75.0.0 ('Goliath') 64-bit
Writing library: libebml v1.4.4 + libmatroska v1.7.1

Video
ID: 1
Format: AVC
Format/Info: Advanced Video Codec
Format profile: [email protected]
Format settings: CABAC / 5 Ref Frames
Format settings, CABAC: Yes
Format settings, Reference frames: 5 frames
Codec ID: V_MPEG4/ISO/AVC
Duration: 52 min 56 s
Bit rate: 2 858 kb/s
Width: 1 480 pixels
Height: 620 pixels
Display aspect ratio: 2.40:1
Frame rate mode: Constant
Frame rate: 23.976 (24000/1001) FPS
Color space: YUV
Chroma subsampling: 4:2:0
Bit depth: 8 bits
Scan type: Progressive
Bits/(Pixel*Frame): 0.130
Stream size: 1.06 GiB (79%)
Default: Yes
Forced: No
Color range: Limited
Color primaries: BT.709
Transfer characteristics: BT.709
Matrix coefficients: BT.709

Audio
ID: 2
Format: E-AC-3 JOC
Format/Info: Enhanced AC-3 with Joint Object Coding
Commercial name: Dolby Digital Plus with Dolby Atmos
Codec ID: A_EAC3
Duration: 52 min 56 s
Bit rate mode: Constant
Bit rate: 768 kb/s
Channel(s): 6 channels
Channel layout: L R C LFE Ls Rs
Sampling rate: 48.0 kHz
Frame rate: 31.250 FPS (1536 SPF)
Compression mode: Lossy
Stream size: 291 MiB (21%)
Title: French (France)
Language: French (FR)
Service kind: Complete Main
Default: Yes
Forced: No
Complexity index: 16
Number of dynamic objects: 15
Bed channel count: 1 channel
Bed channel configuration: LFE

Text #1
ID: 3
Format: UTF-8
Codec ID: S_TEXT/UTF8
Codec ID/Info: UTF-8 Plain Text
Duration: 51 min 50 s
Bit rate: 43 b/s
Frame rate: 0.172 FPS
Count of elements: 534
Stream size: 16.3 KiB (0%)
Title: French (France) (Forced)
Language: French (FR)
Default: Yes
Forced: Yes

Text #2
ID: 4
Format: UTF-8
Codec ID: S_TEXT/UTF8
Codec ID/Info: UTF-8 Plain Text
Duration: 52 min 30 s
Bit rate: 59 b/s
Frame rate: 0.236 FPS
Count of elements: 744
Stream size: 23.0 KiB (0%)
Title: French (France)
Language: French (FR)
Default: No
Forced: No

Text #3
ID: 5
Format: UTF-8
Codec ID: S_TEXT/UTF8
Codec ID/Info: UTF-8 Plain Text
Duration: 52 min 30 s
Bit rate: 65 b/s
Frame rate: 0.258 FPS
Count of elements: 814
Stream size: 25.2 KiB (0%)
Title: French (France) (SDH)
Language: French (FR)
Default: No
Forced: No

Text #4
ID: 6
Format: UTF-8
Codec ID: S_TEXT/UTF8
Codec ID/Info: UTF-8 Plain Text
Duration: 51 min 49 s
Bit rate: 55 b/s
Frame rate: 0.209 FPS
Count of elements: 649
Stream size: 21.0 KiB (0%)
Language: English
Default: No
Forced: No

Text #5
ID: 7
Format: UTF-8
Codec ID: S_TEXT/UTF8
Codec ID/Info: UTF-8 Plain Text
Duration: 52 min 1 s
Bit rate: 61 b/s
Frame rate: 0.229 FPS
Count of elements: 714
Stream size: 23.5 KiB (0%)
Title: SDH
Language: English
Default: No
Forced: No

Text #6
ID: 8
Format: UTF-8
Codec ID: S_TEXT/UTF8
Codec ID/Info: UTF-8 Plain Text
Duration: 52 min 29 s
Bit rate: 72 b/s
Frame rate: 0.206 FPS
Count of elements: 650
Stream size: 27.7 KiB (0%)
Language: Arabic
Default: No
Forced: No

Text #7
ID: 9
Format: UTF-8
Codec ID: S_TEXT/UTF8
Codec ID/Info: UTF-8 Plain Text
Duration: 52 min 29 s
Bit rate: 80 b/s
Frame rate: 0.185 FPS
Count of elements: 584
Stream size: 31.1 KiB (0%)
Language: Bulgarian
Default: No
Forced: No

Text #8
ID: 10
Format: UTF-8
Codec ID: S_TEXT/UTF8
Codec ID/Info: UTF-8 Plain Text
Duration: 52 min 29 s
Bit rate: 48 b/s
Frame rate: 0.207 FPS
Count of elements: 651
Stream size: 18.8 KiB (0%)
Title: Chinese (Simplified)
Language: Mandarin (Hans)
Default: No
Forced: No

Text #9
ID: 11
Format: UTF-8
Codec ID: S_TEXT/UTF8
Codec ID/Info: UTF-8 Plain Text
Duration: 52 min 29 s
Bit rate: 47 b/s
Frame rate: 0.207 FPS
Count of elements: 652
Stream size: 18.1 KiB (0%)
Title: Chinese (Traditional)
Language: Mandarin (Hant)
Default: No
Forced: No

Text #10
ID: 12
Format: UTF-8
Codec ID: S_TEXT/UTF8
Codec ID/Info: UTF-8 Plain Text
Duration: 52 min 29 s
Bit rate: 49 b/s
Frame rate: 0.197 FPS
Count of elements: 619
Stream size: 19.2 KiB (0%)
Language: Czech
Default: No
Forced: No

Text #11
ID: 13
Format: UTF-8
Codec ID: S_TEXT/UTF8
Codec ID/Info: UTF-8 Plain Text
Duration: 52 min 29 s
Bit rate: 50 b/s
Frame rate: 0.179 FPS
Count of elements: 564
Stream size: 19.4 KiB (0%)
Language: Danish
Default: No
Forced: No

Text #12
ID: 14
Format: UTF-8
Codec ID: S_TEXT/UTF8
Codec ID/Info: UTF-8 Plain Text
Duration: 52 min 31 s
Bit rate: 57 b/s
Frame rate: 0.208 FPS
Count of elements: 654
Stream size: 22.1 KiB (0%)
Language: German
Default: No
Forced: No

Text #13
ID: 15
Format: UTF-8
Codec ID: S_TEXT/UTF8
Codec ID/Info: UTF-8 Plain Text
Duration: 52 min 29 s
Bit rate: 94 b/s
Frame rate: 0.203 FPS
Count of elements: 640
Stream size: 36.3 KiB (0%)
Language: Greek
Default: No
Forced: No

Text #14
ID: 16
Format: UTF-8
Codec ID: S_TEXT/UTF8
Codec ID/Info: UTF-8 Plain Text
Duration: 52 min 29 s
Bit rate: 53 b/s
Frame rate: 0.209 FPS
Count of elements: 657
Stream size: 20.7 KiB (0%)
Title: Spanish (Latin America)
Language: Spanish (Latin America)
Default: No
Forced: No

Text #15
ID: 17
Format: UTF-8
Codec ID: S_TEXT/UTF8
Codec ID/Info: UTF-8 Plain Text
Duration: 52 min 29 s
Bit rate: 55 b/s
Frame rate: 0.211 FPS
Count of elements: 664
Stream size: 21.4 KiB (0%)
Title: Spanish (Spain)
Language: Spanish (ES)
Default: No
Forced: No

Text #16
ID: 18
Format: UTF-8
Codec ID: S_TEXT/UTF8
Codec ID/Info: UTF-8 Plain Text
Duration: 52 min 29 s
Bit rate: 50 b/s
Frame rate: 0.202 FPS
Count of elements: 635
Stream size: 19.3 KiB (0%)
Language: Estonian
Default: No
Forced: No

Text #17
ID: 19
Format: UTF-8
Codec ID: S_TEXT/UTF8
Codec ID/Info: UTF-8 Plain Text
Duration: 52 min 29 s
Bit rate: 52 b/s
Frame rate: 0.200 FPS
Count of elements: 631
Stream size: 20.4 KiB (0%)
Language: Finnish
Default: No
Forced: No

Text #18
ID: 20
Format: UTF-8
Codec ID: S_TEXT/UTF8
Codec ID/Info: UTF-8 Plain Text
Duration: 52 min 30 s
Bit rate: 59 b/s
Frame rate: 0.236 FPS
Count of elements: 744
Stream size: 23.0 KiB (0%)
Title: French (Canada)
Language: French (CA)
Default: No
Forced: No

Text #19
ID: 21
Format: UTF-8
Codec ID: S_TEXT/UTF8
Codec ID/Info: UTF-8 Plain Text
Duration: 52 min 29 s
Bit rate: 69 b/s
Frame rate: 0.206 FPS
Count of elements: 650
Stream size: 26.7 KiB (0%)
Language: Hebrew
Default: No
Forced: No

Text #20
ID: 22
Format: UTF-8
Codec ID: S_TEXT/UTF8
Codec ID/Info: UTF-8 Plain Text
Duration: 52 min 29 s
Bit rate: 150 b/s
Frame rate: 0.207 FPS
Count of elements: 651
Stream size: 57.8 KiB (0%)
Language: Hindi
Default: No
Forced: No

Text #21
ID: 23
Format: UTF-8
Codec ID: S_TEXT/UTF8
Codec ID/Info: UTF-8 Plain Text
Duration: 52 min 29 s
Bit rate: 53 b/s
Frame rate: 0.206 FPS
Count of elements: 650
Stream size: 20.6 KiB (0%)
Language: Hungarian
Default: No
Forced: No

Text #22
ID: 24
Format: UTF-8
Codec ID: S_TEXT/UTF8
Codec ID/Info: UTF-8 Plain Text
Duration: 52 min 29 s
Bit rate: 54 b/s
Frame rate: 0.206 FPS
Count of elements: 650
Stream size: 21.0 KiB (0%)
Language: Indonesian
Default: No
Forced: No

Text #23
ID: 25
Format: UTF-8
Codec ID: S_TEXT/UTF8
Codec ID/Info: UTF-8 Plain Text
Duration: 52 min 27 s
Bit rate: 53 b/s
Frame rate: 0.205 FPS
Count of elements: 644
Stream size: 20.4 KiB (0%)
Language: Italian
Default: No
Forced: No

Text #24
ID: 26
Format: UTF-8
Codec ID: S_TEXT/UTF8
Codec ID/Info: UTF-8 Plain Text
Duration: 52 min 32 s
Bit rate: 60 b/s
Frame rate: 0.213 FPS
Count of elements: 671
Stream size: 23.2 KiB (0%)
Language: Japanese
Default: No
Forced: No

Text #25
ID: 27
Format: UTF-8
Codec ID: S_TEXT/UTF8
Codec ID/Info: UTF-8 Plain Text
Duration: 52 min 29 s
Bit rate: 56 b/s
Frame rate: 0.206 FPS
Count of elements: 650
Stream size: 21.5 KiB (0%)
Language: Korean
Default: No
Forced: No

Text #26
ID: 28
Format: UTF-8
Codec ID: S_TEXT/UTF8
Codec ID/Info: UTF-8 Plain Text
Duration: 52 min 29 s
Bit rate: 53 b/s
Frame rate: 0.206 FPS
Count of elements: 650
Stream size: 20.7 KiB (0%)
Language: Lithuanian
Default: No
Forced: No

Text #27
ID: 29
Format: UTF-8
Codec ID: S_TEXT/UTF8
Codec ID/Info: UTF-8 Plain Text
Duration: 52 min 29 s
Bit rate: 56 b/s
Frame rate: 0.205 FPS
Count of elements: 646
Stream size: 21.8 KiB (0%)
Language: Latvian
Default: No
Forced: No

Text #28
ID: 30
Format: UTF-8
Codec ID: S_TEXT/UTF8
Codec ID/Info: UTF-8 Plain Text
Duration: 52 min 29 s
Bit rate: 52 b/s
Frame rate: 0.206 FPS
Count of elements: 650
Stream size: 20.3 KiB (0%)
Language: Malay
Default: No
Forced: No

Text #29
ID: 31
Format: UTF-8
Codec ID: S_TEXT/UTF8
Codec ID/Info: UTF-8 Plain Text
Duration: 52 min 29 s
Bit rate: 51 b/s
Frame rate: 0.168 FPS
Count of elements: 528
Stream size: 19.7 KiB (0%)
Language: Dutch
Default: No
Forced: No

Text #30
ID: 32
Format: UTF-8
Codec ID: S_TEXT/UTF8
Codec ID/Info: UTF-8 Plain Text
Duration: 52 min 29 s
Bit rate: 49 b/s
Frame rate: 0.191 FPS
Count of elements: 600
Stream size: 19.1 KiB (0%)
Language: Norwegian
Default: No
Forced: No

Text #31
ID: 33
Format: UTF-8
Codec ID: S_TEXT/UTF8
Codec ID/Info: UTF-8 Plain Text
Duration: 52 min 29 s
Bit rate: 54 b/s
Frame rate: 0.206 FPS
Count of elements: 649
Stream size: 20.8 KiB (0%)
Language: Polish
Default: No
Forced: No

Text #32
ID: 34
Format: UTF-8
Codec ID: S_TEXT/UTF8
Codec ID/Info: UTF-8 Plain Text
Duration: 52 min 29 s
Bit rate: 54 b/s
Frame rate: 0.206 FPS
Count of elements: 650
Stream size: 20.8 KiB (0%)
Title: Portuguese
Language: Portuguese
Default: No
Forced: No

Text #33
ID: 35
Format: UTF-8
Codec ID: S_TEXT/UTF8
Codec ID/Info: UTF-8 Plain Text
Duration: 52 min 29 s
Bit rate: 49 b/s
Frame rate: 0.207 FPS
Count of elements: 651
Stream size: 19.0 KiB (0%)
Title: Portuguese (Brazil)
Language: Portuguese (BR)
Default: No
Forced: No

Text #34
ID: 36
Format: UTF-8
Codec ID: S_TEXT/UTF8
Codec ID/Info: UTF-8 Plain Text
Duration: 52 min 32 s
Bit rate: 85 b/s
Frame rate: 0.208 FPS
Count of elements: 655
Stream size: 33.1 KiB (0%)
Language: Russian
Default: No
Forced: No

Text #35
ID: 37
Format: UTF-8
Codec ID: S_TEXT/UTF8
Codec ID/Info: UTF-8 Plain Text
Duration: 52 min 29 s
Bit rate: 51 b/s
Frame rate: 0.207 FPS
Count of elements: 651
Stream size: 19.7 KiB (0%)
Language: Slovak
Default: No
Forced: No

Text #36
ID: 38
Format: UTF-8
Codec ID: S_TEXT/UTF8
Codec ID/Info: UTF-8 Plain Text
Duration: 52 min 29 s
Bit rate: 45 b/s
Frame rate: 0.180 FPS
Count of elements: 566
Stream size: 17.4 KiB (0%)
Language: Slovenian
Default: No
Forced: No

Text #37
ID: 39
Format: UTF-8
Codec ID: S_TEXT/UTF8
Codec ID/Info: UTF-8 Plain Text
Duration: 52 min 29 s
Bit rate: 53 b/s
Frame rate: 0.206 FPS
Count of elements: 650
Stream size: 20.6 KiB (0%)
Language: Swedish
Default: No
Forced: No

Text #38
ID: 40
Format: UTF-8
Codec ID: S_TEXT/UTF8
Codec ID/Info: UTF-8 Plain Text
Duration: 52 min 29 s
Bit rate: 161 b/s
Frame rate: 0.206 FPS
Count of elements: 650
Stream size: 62.0 KiB (0%)
Language: Tamil
Default: No
Forced: No

Text #39
ID: 41
Format: UTF-8
Codec ID: S_TEXT/UTF8
Codec ID/Info: UTF-8 Plain Text
Duration: 52 min 29 s
Bit rate: 160 b/s
Frame rate: 0.206 FPS
Count of elements: 650
Stream size: 61.8 KiB (0%)
Language: Telugu
Default: No
Forced: No

Text #40
ID: 42
Format: UTF-8
Codec ID: S_TEXT/UTF8
Codec ID/Info: UTF-8 Plain Text
Duration: 52 min 29 s
Bit rate: 133 b/s
Frame rate: 0.207 FPS
Count of elements: 651
Stream size: 51.3 KiB (0%)
Language: Thai
Default: No
Forced: No

Text #41
ID: 43
Format: UTF-8
Codec ID: S_TEXT/UTF8
Codec ID/Info: UTF-8 Plain Text
Duration: 52 min 29 s
Bit rate: 52 b/s
Frame rate: 0.205 FPS
Count of elements: 645
Stream size: 20.3 KiB (0%)
Language: Turkish
Default: No
Forced: No

Text #42
ID: 44
Format: UTF-8
Codec ID: S_TEXT/UTF8
Codec ID/Info: UTF-8 Plain Text
Duration: 52 min 29 s
Bit rate: 83 b/s
Frame rate: 0.207 FPS
Count of elements: 651
Stream size: 32.0 KiB (0%)
Language: Ukrainian
Default: No
Forced: No

Text #43
ID: 45
Format: UTF-8
Codec ID: S_TEXT/UTF8
Codec ID/Info: UTF-8 Plain Text
Duration: 52 min 29 s
Bit rate: 70 b/s
Frame rate: 0.207 FPS
Count of elements: 652
Stream size: 27.0 KiB (0%)
Language: Vietnamese
Default: No
Forced: No

Text #44
ID: 46
Format: UTF-8
Codec ID: S_TEXT/UTF8
Codec ID/Info: UTF-8 Plain Text
Duration: 52 min 29 s
Bit rate: 41 b/s
Frame rate: 0.207 FPS
Count of elements: 652
Stream size: 16.1 KiB (0%)
Title: Cantonese (Traditional)
Language: Cantonese (Hant)
Default: No
Forced: No
ssl  EZTV RSS EZTV Status | EZTV API | DMCA: [email protected]