eztv1.xyz | eztvstatus.org
Search title:  
TV Packs only
 

Love and Death S01E06 The Big Top 1080p HMAX WEBRip DDP5 1 x264-NTb EZTV

Episode Breakdown
Love & Death
Love & Death TV Show S01E06

Season: 1
Episode: 6
Air Date: 18 May, 2023
Download Links
     Torrent Download     Magnet Download
     Anonymous Download
Added 1 year ago by eztv (verified).
Tracker Statistics
Seeds: 0
Peers: 0
Stats generated @ 16:47 on 16th Jul 2024
Torrent Info
Torrent File: Love.and.Death.S01E06.The.Big.Top.1080p.HMAX.WEB-DL.DDP5.1.H.264-NTb[eztv.re].mkv
Torrent Hash: 3158A5788AF807B2DF3C66D5630CCFC616928FDD
Filesize: 2.80 GB
Released: 18th May 2023

File Format: MKV (Matroska)
Resolution: 1920x1080 px
Aspect Ratio: 16:9
Alternate Releases S L
Love and Death S01E06 720p WEB h264-ETHEL 2 0
Love and Death S01E06 1080p WEB H264-CAKES 2 0
Love and Death S01E06 720p HEVC x265-MeGusta 0 0
Love and Death S01E06 480p x264-mSD 0 0
Love and Death S01E06 XviD-AFG 0 0
Love and Death S01E06 1080p HEVC x265-MeGusta 3 1
Love and Death S01E06 The Big Top 1080p AMZN WEBRip DDP5 1 x264-NTb 1 0

Love & Death S01E06 - The Big Top

Summary:

1980. As the trial gets underway, Allan's testimony about Betty's state of mind rankles her father, while Candy gets a visit from an incensed Pastor Jackie.



Love and Death S01E06 The Big Top 1080p HMAX WEBRip DDP5 1 x264-NTb EZTV
Love & Death S1E6 Screenshot


General
Unique ID: 39553200912195835871959004233627580673 (0x1DC1AB5E04071FE0308A2FF0C793B901)
Complete name: Love.and.Death.S01E06.The.Big.Top.1080p.HMAX.WEB-DL.DDP5.1.H.264-NTb.mkv
Format: Matroska
Format version: Version 4
File size: 2.80 GiB
Duration: 45 min 9 s
Overall bit rate mode: Variable
Overall bit rate: 8 872 kb/s
Writing application: mkvmerge v75.0.0 ('Goliath') 64-bit
Writing library: libebml v1.4.4 + libmatroska v1.7.1

Video
ID: 1
Format: AVC
Format/Info: Advanced Video Codec
Format profile: High@L4
Format settings: CABAC / 4 Ref Frames
Format settings, CABAC: Yes
Format settings, Reference frames: 4 frames
Codec ID: V_MPEG4/ISO/AVC
Duration: 45 min 9 s
Bit rate mode: Variable
Bit rate: 8 250 kb/s
Maximum bit rate: 12.4 Mb/s
Width: 1 920 pixels
Height: 1 080 pixels
Display aspect ratio: 16:9
Frame rate mode: Constant
Frame rate: 23.976 (24000/1001) FPS
Color space: YUV
Chroma subsampling: 4:2:0
Bit depth: 8 bits
Scan type: Progressive
Bits/(Pixel*Frame): 0.166
Stream size: 2.59 GiB (93%)
Writing library: x264 core 157 r2965 861cec4
Encoding settings: cabac=1 / ref=4 / deblock=1:0:0 / analyse=0x3:0x113 / me=hex / subme=7 / psy=1 / psy_rd=1.00:0.00 / mixed_ref=1 / me_range=16 / chroma_me=1 / trellis=1 / 8x8dct=1 / cqm=0 / deadzone=21,11 / fast_pskip=1 / chroma_qp_offset=-2 / threads=34 / lookahead_threads=5 / sliced_threads=0 / nr=0 / decimate=1 / interlaced=0 / bluray_compat=0 / constrained_intra=0 / bframes=3 / b_pyramid=2 / b_adapt=1 / b_bias=0 / direct=1 / weightb=1 / open_gop=0 / weightp=2 / keyint=96 / keyint_min=96 / scenecut=40 / intra_refresh=0 / rc_lookahead=40 / rc=2pass / mbtree=1 / bitrate=8250 / ratetol=1.0 / qcomp=0.60 / qpmin=0 / qpmax=69 / qpstep=4 / cplxblur=20.0 / qblur=0.5 / vbv_maxrate=12375 / vbv_bufsize=6187 / nal_hrd=vbr / filler=0 / ip_ratio=1.40 / aq=1:1.00
Default: Yes
Forced: No
Color range: Limited
Color primaries: BT.709
Transfer characteristics: BT.709
Matrix coefficients: BT.709

Audio
ID: 2
Format: E-AC-3
Format/Info: Enhanced AC-3
Commercial name: Dolby Digital Plus
Codec ID: A_EAC3
Duration: 45 min 9 s
Bit rate mode: Constant
Bit rate: 640 kb/s
Channel(s): 6 channels
Channel layout: L R C LFE Ls Rs
Sampling rate: 48.0 kHz
Frame rate: 31.250 FPS (1536 SPF)
Compression mode: Lossy
Stream size: 207 MiB (7%)
Language: English
Service kind: Complete Main
Default: Yes
Forced: No

Text #1
ID: 3
Format: UTF-8
Codec ID: S_TEXT/UTF8
Codec ID/Info: UTF-8 Plain Text
Duration: 41 min 55 s
Bit rate: 78 b/s
Frame rate: 0.276 FPS
Count of elements: 694
Stream size: 24.2 KiB (0%)
Language: English (US)
Default: No
Forced: No

Text #2
ID: 4
Format: UTF-8
Codec ID: S_TEXT/UTF8
Codec ID/Info: UTF-8 Plain Text
Duration: 45 min 1 s
Bit rate: 91 b/s
Frame rate: 0.338 FPS
Count of elements: 913
Stream size: 30.0 KiB (0%)
Title: SDH
Language: English (US)
Default: No
Forced: No

Text #3
ID: 5
Format: UTF-8
Codec ID: S_TEXT/UTF8
Codec ID/Info: UTF-8 Plain Text
Duration: 44 min 50 s
Bit rate: 107 b/s
Frame rate: 0.260 FPS
Count of elements: 700
Stream size: 35.4 KiB (0%)
Language: Bulgarian (BG)
Default: No
Forced: No

Text #4
ID: 6
Format: UTF-8
Codec ID: S_TEXT/UTF8
Codec ID/Info: UTF-8 Plain Text
Duration: 44 min 50 s
Bit rate: 69 b/s
Frame rate: 0.261 FPS
Count of elements: 702
Stream size: 22.7 KiB (0%)
Language: Czech (CZ)
Default: No
Forced: No

Text #5
ID: 7
Format: UTF-8
Codec ID: S_TEXT/UTF8
Codec ID/Info: UTF-8 Plain Text
Duration: 44 min 50 s
Bit rate: 66 b/s
Frame rate: 0.259 FPS
Count of elements: 698
Stream size: 21.7 KiB (0%)
Language: Danish (DK)
Default: No
Forced: No

Text #6
ID: 8
Format: UTF-8
Codec ID: S_TEXT/UTF8
Codec ID/Info: UTF-8 Plain Text
Duration: 44 min 50 s
Bit rate: 70 b/s
Frame rate: 0.260 FPS
Count of elements: 699
Stream size: 23.2 KiB (0%)
Title: Spanish (Latin America)
Language: Spanish (Latin America)
Default: No
Forced: No

Text #7
ID: 9
Format: UTF-8
Codec ID: S_TEXT/UTF8
Codec ID/Info: UTF-8 Plain Text
Duration: 42 min 30 s
Bit rate: 75 b/s
Frame rate: 0.244 FPS
Count of elements: 622
Stream size: 23.5 KiB (0%)
Title: Spanish (Spain)
Language: Spanish (ES)
Default: No
Forced: No

Text #8
ID: 10
Format: UTF-8
Codec ID: S_TEXT/UTF8
Codec ID/Info: UTF-8 Plain Text
Duration: 43 min 23 s
Bit rate: 64 b/s
Frame rate: 0.267 FPS
Count of elements: 695
Stream size: 20.4 KiB (0%)
Language: Finnish (FI)
Default: No
Forced: No

Text #9
ID: 11
Format: UTF-8
Codec ID: S_TEXT/UTF8
Codec ID/Info: UTF-8 Plain Text
Duration: 44 min 50 s
Bit rate: 61 b/s
Frame rate: 0.260 FPS
Count of elements: 699
Stream size: 20.1 KiB (0%)
Language: Croatian (HR)
Default: No
Forced: No

Text #10
ID: 12
Format: UTF-8
Codec ID: S_TEXT/UTF8
Codec ID/Info: UTF-8 Plain Text
Duration: 44 min 50 s
Bit rate: 66 b/s
Frame rate: 0.261 FPS
Count of elements: 701
Stream size: 21.9 KiB (0%)
Language: Hungarian (HU)
Default: No
Forced: No

Text #11
ID: 13
Format: UTF-8
Codec ID: S_TEXT/UTF8
Codec ID/Info: UTF-8 Plain Text
Duration: 44 min 50 s
Bit rate: 127 b/s
Frame rate: 0.261 FPS
Count of elements: 701
Stream size: 42.0 KiB (0%)
Language: Macedonian (MK)
Default: No
Forced: No

Text #12
ID: 14
Format: UTF-8
Codec ID: S_TEXT/UTF8
Codec ID/Info: UTF-8 Plain Text
Duration: 44 min 50 s
Bit rate: 65 b/s
Frame rate: 0.243 FPS
Count of elements: 655
Stream size: 21.4 KiB (0%)
Language: Dutch (NL)
Default: No
Forced: No

Text #13
ID: 15
Format: UTF-8
Codec ID: S_TEXT/UTF8
Codec ID/Info: UTF-8 Plain Text
Duration: 44 min 50 s
Bit rate: 61 b/s
Frame rate: 0.259 FPS
Count of elements: 698
Stream size: 20.3 KiB (0%)
Language: Norwegian (NO)
Default: No
Forced: No

Text #14
ID: 16
Format: UTF-8
Codec ID: S_TEXT/UTF8
Codec ID/Info: UTF-8 Plain Text
Duration: 44 min 50 s
Bit rate: 59 b/s
Frame rate: 0.260 FPS
Count of elements: 700
Stream size: 19.5 KiB (0%)
Language: Polish (PL)
Default: No
Forced: No

Text #15
ID: 17
Format: UTF-8
Codec ID: S_TEXT/UTF8
Codec ID/Info: UTF-8 Plain Text
Duration: 44 min 56 s
Bit rate: 64 b/s
Frame rate: 0.259 FPS
Count of elements: 699
Stream size: 21.1 KiB (0%)
Title: Portuguese (Brazil)
Language: Portuguese (BR)
Default: No
Forced: No

Text #16
ID: 18
Format: UTF-8
Codec ID: S_TEXT/UTF8
Codec ID/Info: UTF-8 Plain Text
Duration: 44 min 50 s
Bit rate: 74 b/s
Frame rate: 0.258 FPS
Count of elements: 693
Stream size: 24.3 KiB (0%)
Title: Portuguese (Portugal)
Language: Portuguese (PT)
Default: No
Forced: No

Text #17
ID: 19
Format: UTF-8
Codec ID: S_TEXT/UTF8
Codec ID/Info: UTF-8 Plain Text
Duration: 44 min 50 s
Bit rate: 75 b/s
Frame rate: 0.261 FPS
Count of elements: 703
Stream size: 24.7 KiB (0%)
Language: Romanian (RO)
Default: No
Forced: No

Text #18
ID: 20
Format: UTF-8
Codec ID: S_TEXT/UTF8
Codec ID/Info: UTF-8 Plain Text
Duration: 44 min 50 s
Bit rate: 64 b/s
Frame rate: 0.261 FPS
Count of elements: 701
Stream size: 21.1 KiB (0%)
Language: Slovenian (SI)
Default: No
Forced: No

Text #19
ID: 21
Format: UTF-8
Codec ID: S_TEXT/UTF8
Codec ID/Info: UTF-8 Plain Text
Duration: 44 min 50 s
Bit rate: 67 b/s
Frame rate: 0.261 FPS
Count of elements: 701
Stream size: 22.2 KiB (0%)
Language: Serbian-Latn-RS
Default: No
Forced: No

Text #20
ID: 22
Format: UTF-8
Codec ID: S_TEXT/UTF8
Codec ID/Info: UTF-8 Plain Text
Duration: 44 min 50 s
Bit rate: 71 b/s
Frame rate: 0.260 FPS
Count of elements: 699
Stream size: 23.3 KiB (0%)
Language: Swedish (SE)
Default: No
Forced: No

Menu
00:00:00.000: Chapter 1
00:00:05.964: Intro
00:01:36.139: Chapter 2
00:13:02.573: Chapter 3
00:22:14.333: Chapter 4
00:36:42.909: Chapter 5
00:44:08.000: Credits
ssl  EZTV RSS EZTV Status | EZTV API | DMCA: [email protected]