eztv1.xyz | eztvstatus.org
Search title:  
TV Packs only
 

Top Chef S20E12 Goodbye London 1080p AMZN WEB-DL DDP2 0 H 264-NTb EZTV

Episode Breakdown
Top Chef
Top Chef TV Show S20E12

Season: 20
Episode: 12
Air Date: 25 May, 2023
Download Links
     Torrent Download     Magnet Download
     Anonymous Download
Added 8 months ago by eztv (verified).
Tracker Statistics
Seeds: 3
Peers: 1
Stats generated @ 01:42 on 2nd Mar 2024
Torrent Info
Torrent File: Top.Chef.S20E12.Goodbye.London.1080p.AMZN.WEB-DL.DDP2.0.H.264-NTb[eztv.re].mkv
Torrent Hash: C070822D08F18FFD6499B55AFFD82A76EB3C69DF
Filesize: 3.78 GB
Released: 9th Jun 2023

File Format: MKV (Matroska)
Resolution: 1920x1080 px
Aspect Ratio: 16:9
Alternate Releases S L
Top Chef S20E12 720p WEB H264-RAGEQUIT 0 0
Top Chef S20E12 1080p WEB H264-RAGEQUIT 7 1
Top Chef S20E12 XviD-AFG 1 0
Top Chef S20E12 480p x264-mSD 1 1
Top Chef S20E12 720p HEVC x265-MeGusta 3 0
Top Chef S20E12 1080p HEVC x265-MeGusta 9 0

Top Chef S20E12 - Goodbye, London!

Summary:

As the journey in London comes to a wrap, the final four chefs welcome back the winner of Last Chance Kitchen. For this week's Quickfire, the chefs are joined by guest judge Sam Bompas, who challenges them to create a dish featuring jellies and molds. For their final Elimination Challenge in England, they're tasked with creating trompe-l'œil dishes, where the plates must literally fool the eye and taste like something completely different than what they look like. Who will make it to the finals in Paris, and who will bid adieu?



Top Chef S20E12 Goodbye London 1080p AMZN WEB-DL DDP2 0 H 264-NTb EZTV
Top Chef S20E12 Screenshot


General
Unique ID: 256524232011266276708517924432025461002 (0xC0FCC51E022E3AAF7A4C21FF166FA10A)
Complete name: Top.Chef.S20E12.Goodbye.London.1080p.AMZN.WEB-DL.DDP2.0.H.264-NTb.mkv
Format: Matroska
Format version: Version 4
File size: 3.78 GiB
Duration: 54 min 6 s
Overall bit rate: 10.0 Mb/s
Writing application: mkvmerge v74.0.0 ('You Oughta Know') 64-bit
Writing library: libebml v1.4.4 + libmatroska v1.7.1

Video
ID: 1
Format: AVC
Format/Info: Advanced Video Codec
Format profile: High@L4
Format settings: CABAC / 4 Ref Frames
Format settings, CABAC: Yes
Format settings, Reference frames: 4 frames
Codec ID: V_MPEG4/ISO/AVC
Duration: 54 min 6 s
Bit rate mode: Constant
Bit rate: 10 000 kb/s
Width: 1 920 pixels
Height: 1 080 pixels
Display aspect ratio: 16:9
Frame rate mode: Constant
Frame rate: 23.976 (24000/1001) FPS
Color space: YUV
Chroma subsampling: 4:2:0
Bit depth: 8 bits
Scan type: Progressive
Bits/(Pixel*Frame): 0.201
Stream size: 3.70 GiB (98%)
Default: Yes
Forced: No
Color range: Limited
Color primaries: BT.709
Transfer characteristics: BT.709
Matrix coefficients: BT.709

Audio
ID: 2
Format: E-AC-3
Format/Info: Enhanced AC-3
Commercial name: Dolby Digital Plus
Codec ID: A_EAC3
Duration: 54 min 6 s
Bit rate mode: Constant
Bit rate: 224 kb/s
Channel(s): 2 channels
Channel layout: L R
Sampling rate: 48.0 kHz
Frame rate: 31.250 FPS (1536 SPF)
Compression mode: Lossy
Stream size: 86.7 MiB (2%)
Language: English (US)
Service kind: Complete Main
Default: Yes
Forced: No

Text #1
ID: 3
Format: UTF-8
Codec ID: S_TEXT/UTF8
Codec ID/Info: UTF-8 Plain Text
Duration: 54 min 2 s
Bit rate: 110 b/s
Frame rate: 0.389 FPS
Count of elements: 1260
Stream size: 43.8 KiB (0%)
Language: English (US)
Default: No
Forced: No

Text #2
ID: 4
Format: UTF-8
Codec ID: S_TEXT/UTF8
Codec ID/Info: UTF-8 Plain Text
Duration: 54 min 6 s
Bit rate: 118 b/s
Frame rate: 0.421 FPS
Count of elements: 1365
Stream size: 47.1 KiB (0%)
Title: SDH
Language: English (US)
Default: No
Forced: No
ssl  EZTV RSS EZTV Status | EZTV API | DMCA: [email protected]