eztv1.xyz | eztvstatus.org
Search title:  
TV Packs only
 

Ahsoka S01E05 Part Five 720p DSNP WEB-DL DDP5 1 H 264-NTb EZTV

Episode Breakdown
Ahsoka
Ahsoka TV Show S01E05

Season: 1
Episode: 5
Air Date: 12 September, 2023
Download Links
     Torrent Download     Magnet Download
     Anonymous Download
Added 10 months ago by eztv (verified).
Tracker Statistics
Seeds: 41
Peers: 2
Stats generated @ 02:51 on 21st Jul 2024
Torrent Info
Torrent File: Ahsoka.S01E05.Part.Five.720p.DSNP.WEB-DL.DDP5.1.H.264-NTb[eztv.re].mkv
Torrent Hash: 2A8A0A8CB4BCCFAD4E5819D97C9111019901D87D
Filesize: 1.18 GB
Released: 12th Sep 2023

File Format: MKV (Matroska)
Resolution: 1280x720 px
Aspect Ratio: 16:9
Alternate Releases S L
Ahsoka S01E05 Part Five 1080p DSNP WEB-DL DDP5 1 H 264-NTb 64 1
Ahsoka S01E05 720p x265-T0PAZ 6 2
Ahsoka S01E05 720p x264-FENiX 6 3
Ahsoka S01E05 1080p x265-ELiTE 9 0
Ahsoka S01E05 1080p WEB h264-ETHEL 1 1
Ahsoka S01E05 1080p HEVC x265-MeGusta 42 1
Ahsoka S01E05 480p x264-mSD 6 1

Ahsoka S01E05 - Part Five: Shadow Warrior

Summary:

Ahsoka confronts her past, while Hera and her allies undertake a rescue mission.



Ahsoka S01E05 Part Five 720p DSNP WEB-DL DDP5 1 H 264-NTb EZTV
Ahsoka S1E5 Screenshot


General
Unique ID: 312777854750265030329758700116759748301 (0xEB4ED2DA1A22250BFCF7488595C71ECD)
Complete name: Ahsoka.S01E05.Part.Five.720p.DSNP.WEB-DL.DDP5.1.H.264-NTb.mkv
Format: Matroska
Format version: Version 4
File size: 1.18 GiB
Duration: 49 min 52 s
Overall bit rate mode: Variable
Overall bit rate: 3 375 kb/s
Frame rate: 24.000 FPS
Writing application: mkvmerge v78.0 ('Running') 64-bit
Writing library: libebml v1.4.4 + libmatroska v1.7.1

Video
ID: 1
Format: AVC
Format/Info: Advanced Video Codec
Format profile: [email protected]
Format settings: CABAC / 4 Ref Frames
Format settings, CABAC: Yes
Format settings, Reference frames: 4 frames
Codec ID: V_MPEG4/ISO/AVC
Duration: 49 min 52 s
Bit rate mode: Variable
Bit rate: 2 603 kb/s
Maximum bit rate: 6 375 kb/s
Width: 1 280 pixels
Height: 720 pixels
Display aspect ratio: 16:9
Frame rate mode: Constant
Frame rate: 24.000 FPS
Color space: YUV
Chroma subsampling: 4:2:0
Bit depth: 8 bits
Scan type: Progressive
Bits/(Pixel*Frame): 0.118
Stream size: 929 MiB (77%)
Default: Yes
Forced: No
Color range: Limited
Color primaries: BT.709
Transfer characteristics: BT.709
Matrix coefficients: BT.709

Audio
ID: 2
Format: E-AC-3 JOC
Format/Info: Enhanced AC-3 with Joint Object Coding
Commercial name: Dolby Digital Plus with Dolby Atmos
Codec ID: A_EAC3
Duration: 49 min 52 s
Bit rate mode: Constant
Bit rate: 768 kb/s
Channel(s): 6 channels
Channel layout: L R C LFE Ls Rs
Sampling rate: 48.0 kHz
Frame rate: 31.250 FPS (1536 SPF)
Compression mode: Lossy
Stream size: 274 MiB (23%)
Language: English
Service kind: Complete Main
Default: Yes
Forced: No
Complexity index: 16
Number of dynamic objects: 15
Bed channel count: 1 channel
Bed channel configuration: LFE

Text #1
ID: 3
Format: UTF-8
Codec ID: S_TEXT/UTF8
Codec ID/Info: UTF-8 Plain Text
Duration: 45 min 48 s
Bit rate: 33 b/s
Frame rate: 0.139 FPS
Count of elements: 382
Stream size: 11.4 KiB (0%)
Language: English
Default: No
Forced: No

Text #2
ID: 4
Format: UTF-8
Codec ID: S_TEXT/UTF8
Codec ID/Info: UTF-8 Plain Text
Duration: 46 min 10 s
Bit rate: 39 b/s
Frame rate: 0.167 FPS
Count of elements: 463
Stream size: 13.2 KiB (0%)
Title: SDH
Language: English
Default: No
Forced: No

Text #3
ID: 5
Format: UTF-8
Codec ID: S_TEXT/UTF8
Codec ID/Info: UTF-8 Plain Text
Duration: 49 min 38 s
Bit rate: 28 b/s
Frame rate: 0.133 FPS
Count of elements: 396
Stream size: 10.4 KiB (0%)
Language: Czech
Default: No
Forced: No

Text #4
ID: 6
Format: UTF-8
Codec ID: S_TEXT/UTF8
Codec ID/Info: UTF-8 Plain Text
Duration: 49 min 38 s
Bit rate: 31 b/s
Frame rate: 0.102 FPS
Count of elements: 304
Stream size: 11.5 KiB (0%)
Language: Danish
Default: No
Forced: No

Text #5
ID: 7
Format: UTF-8
Codec ID: S_TEXT/UTF8
Codec ID/Info: UTF-8 Plain Text
Duration: 49 min 38 s
Bit rate: 33 b/s
Frame rate: 0.142 FPS
Count of elements: 422
Stream size: 12.3 KiB (0%)
Language: German
Default: No
Forced: No

Text #6
ID: 8
Format: UTF-8
Codec ID: S_TEXT/UTF8
Codec ID/Info: UTF-8 Plain Text
Duration: 49 min 38 s
Bit rate: 54 b/s
Frame rate: 0.133 FPS
Count of elements: 395
Stream size: 19.9 KiB (0%)
Language: Greek
Default: No
Forced: No

Text #7
ID: 9
Format: UTF-8
Codec ID: S_TEXT/UTF8
Codec ID/Info: UTF-8 Plain Text
Duration: 49 min 38 s
Bit rate: 30 b/s
Frame rate: 0.133 FPS
Count of elements: 396
Stream size: 11.3 KiB (0%)
Title: Spanish (Latin America)
Language: Spanish (Latin America)
Default: No
Forced: No

Text #8
ID: 10
Format: UTF-8
Codec ID: S_TEXT/UTF8
Codec ID/Info: UTF-8 Plain Text
Duration: 49 min 38 s
Bit rate: 30 b/s
Frame rate: 0.132 FPS
Count of elements: 394
Stream size: 11.1 KiB (0%)
Title: Spanish (Spain)
Language: Spanish (ES)
Default: No
Forced: No

Text #9
ID: 11
Format: UTF-8
Codec ID: S_TEXT/UTF8
Codec ID/Info: UTF-8 Plain Text
Duration: 49 min 38 s
Bit rate: 30 b/s
Frame rate: 0.133 FPS
Count of elements: 395
Stream size: 11.0 KiB (0%)
Language: Finnish
Default: No
Forced: No

Text #10
ID: 12
Format: UTF-8
Codec ID: S_TEXT/UTF8
Codec ID/Info: UTF-8 Plain Text
Duration: 46 min 54 s
Bit rate: 31 b/s
Frame rate: 0.142 FPS
Count of elements: 400
Stream size: 10.9 KiB (0%)
Language: French (FR)
Default: No
Forced: No

Text #11
ID: 13
Format: UTF-8
Codec ID: S_TEXT/UTF8
Codec ID/Info: UTF-8 Plain Text
Duration: 49 min 38 s
Bit rate: 30 b/s
Frame rate: 0.133 FPS
Count of elements: 395
Stream size: 11.0 KiB (0%)
Language: Hungarian
Default: No
Forced: No

Text #12
ID: 14
Format: UTF-8
Codec ID: S_TEXT/UTF8
Codec ID/Info: UTF-8 Plain Text
Duration: 49 min 38 s
Bit rate: 31 b/s
Frame rate: 0.133 FPS
Count of elements: 396
Stream size: 11.5 KiB (0%)
Language: Italian
Default: No
Forced: No

Text #13
ID: 15
Format: UTF-8
Codec ID: S_TEXT/UTF8
Codec ID/Info: UTF-8 Plain Text
Duration: 49 min 39 s
Bit rate: 26 b/s
Frame rate: 0.134 FPS
Count of elements: 399
Stream size: 9.74 KiB (0%)
Language: Japanese
Default: No
Forced: No

Text #14
ID: 16
Format: UTF-8
Codec ID: S_TEXT/UTF8
Codec ID/Info: UTF-8 Plain Text
Duration: 49 min 38 s
Bit rate: 33 b/s
Frame rate: 0.133 FPS
Count of elements: 397
Stream size: 12.2 KiB (0%)
Language: Korean
Default: No
Forced: No

Text #15
ID: 17
Format: UTF-8
Codec ID: S_TEXT/UTF8
Codec ID/Info: UTF-8 Plain Text
Duration: 49 min 39 s
Bit rate: 30 b/s
Frame rate: 0.129 FPS
Count of elements: 385
Stream size: 11.3 KiB (0%)
Language: Dutch
Default: No
Forced: No

Text #16
ID: 18
Format: UTF-8
Codec ID: S_TEXT/UTF8
Codec ID/Info: UTF-8 Plain Text
Duration: 49 min 38 s
Bit rate: 28 b/s
Frame rate: 0.133 FPS
Count of elements: 396
Stream size: 10.4 KiB (0%)
Language: Norwegian
Default: No
Forced: No

Text #17
ID: 19
Format: UTF-8
Codec ID: S_TEXT/UTF8
Codec ID/Info: UTF-8 Plain Text
Duration: 49 min 38 s
Bit rate: 30 b/s
Frame rate: 0.133 FPS
Count of elements: 396
Stream size: 11.0 KiB (0%)
Language: Polish
Default: No
Forced: No

Text #18
ID: 20
Format: UTF-8
Codec ID: S_TEXT/UTF8
Codec ID/Info: UTF-8 Plain Text
Duration: 49 min 38 s
Bit rate: 32 b/s
Frame rate: 0.133 FPS
Count of elements: 396
Stream size: 11.9 KiB (0%)
Title: Portuguese (Brazil)
Language: Portuguese (BR)
Default: No
Forced: No

Text #19
ID: 21
Format: UTF-8
Codec ID: S_TEXT/UTF8
Codec ID/Info: UTF-8 Plain Text
Duration: 49 min 38 s
Bit rate: 30 b/s
Frame rate: 0.132 FPS
Count of elements: 394
Stream size: 11.2 KiB (0%)
Title: Portuguese (Portugal)
Language: Portuguese (PT)
Default: No
Forced: No

Text #20
ID: 22
Format: UTF-8
Codec ID: S_TEXT/UTF8
Codec ID/Info: UTF-8 Plain Text
Duration: 49 min 38 s
Bit rate: 32 b/s
Frame rate: 0.132 FPS
Count of elements: 394
Stream size: 11.7 KiB (0%)
Language: Romanian
Default: No
Forced: No

Text #21
ID: 23
Format: UTF-8
Codec ID: S_TEXT/UTF8
Codec ID/Info: UTF-8 Plain Text
Duration: 49 min 38 s
Bit rate: 28 b/s
Frame rate: 0.133 FPS
Count of elements: 396
Stream size: 10.5 KiB (0%)
Language: Slovak
Default: No
Forced: No

Text #22
ID: 24
Format: UTF-8
Codec ID: S_TEXT/UTF8
Codec ID/Info: UTF-8 Plain Text
Duration: 49 min 38 s
Bit rate: 29 b/s
Frame rate: 0.103 FPS
Count of elements: 306
Stream size: 10.7 KiB (0%)
Language: Swedish
Default: No
Forced: No

Text #23
ID: 25
Format: UTF-8
Codec ID: S_TEXT/UTF8
Codec ID/Info: UTF-8 Plain Text
Duration: 49 min 38 s
Bit rate: 32 b/s
Frame rate: 0.133 FPS
Count of elements: 395
Stream size: 11.7 KiB (0%)
Language: Turkish
Default: No
Forced: No

Text #24
ID: 26
Format: UTF-8
Codec ID: S_TEXT/UTF8
Codec ID/Info: UTF-8 Plain Text
Duration: 49 min 38 s
Bit rate: 25 b/s
Frame rate: 0.134 FPS
Count of elements: 398
Stream size: 9.40 KiB (0%)
Title: Chinese (Hong Kong SAR China)
Language: Chinese (HK)
Default: No
Forced: No

Text #25
ID: 27
Format: UTF-8
Codec ID: S_TEXT/UTF8
Codec ID/Info: UTF-8 Plain Text
Duration: 49 min 38 s
Bit rate: 23 b/s
Frame rate: 0.133 FPS
Count of elements: 396
Stream size: 8.55 KiB (0%)
Title: Chinese (Traditional)
Language: Chinese (Traditional)
Default: No
Forced: No

ssl  EZTV RSS EZTV Status | EZTV API | DMCA: [email protected]