eztv1.xyz | Tuesday 26th of September 2023 05:29 AM ET
Search title:  
TV Packs only
 

Invasion 2021 S02E04 The Tunnel 1080p ATVP WEB-DL DDP5 1 Atmos H 264-FLUX EZTV

Episode Breakdown
Invasion
Invasion TV Show S02E04

Season: 2
Episode: 4
Air Date: 13 September, 2023
Download Links
     Torrent Download     Magnet Download
     Anonymous Download
Added 13 days ago by eztv (verified).
Tracker Statistics
Seeds: 398
Peers: 59
Stats generated @ 05:29 on 26th Sep 2023
Torrent Info
Torrent File: Invasion.2021.S02E04.The.Tunnel.1080p.ATVP.WEB-DL.DDP5.1.Atmos.H.264-FLUX[eztv.re].mkv
Torrent Hash: 06656CBD4E9095311E19F4D2F7F3BADA0D017E65
Filesize: 3.82 GB
Released: 12th Sep 2023

File Format: MKV (Matroska)
Resolution: 1920x1080 px
Aspect Ratio: 16:9
Alternate Releases S L
Invasion 2021 S02E04 The Tunnel 1080p ATVP WEB-DL DDP5 1 H 264-NTb 18 2
Invasion 2021 S02E04 The Tunnel 720p ATVP WEB-DL DDP5 1 H 264-NTb 103 18
Invasion 2021 S02E04 720p x264-FENiX 18 6
Invasion 2021 S02E04 720p x265-T0PAZ 16 1
Invasion 2021 S02E04 1080p x265-ELiTE 26 3
Invasion 2021 S02E04 1080p WEB h264-ETHEL 12 2
Invasion 2021 S02E04 1080p HEVC x265-MeGusta 94 21

Invasion S02E04 - The Tunnel

Summary:

Jamila's decision to trek the Channel Tunnel puts the group face-to-face with an even deadlier enemy.



Invasion 2021 S02E04 The Tunnel 1080p ATVP WEB-DL DDP5 1 Atmos H 264-FLUX EZTV
Invasion S2E4 Screenshot


General
Unique ID: 49150746580974503671115211664553259216 (0x24FA16E70AE11EDFD590F1B4DD29B0D0)
Complete name: Invasion.2021.S02E04.The.Tunnel.1080p.ATVP.WEB-DL.DDP5.1.Atmos.H.264-FLUX.mkv
Format: Matroska
Format version: Version 4
File size: 3.82 GiB
Duration: 50 min 6 s
Overall bit rate: 10.9 Mb/s
Frame rate: 23.976 FPS
Writing application: mkvmerge v79.0 ('Funeral Pyres') 64-bit
Writing library: libebml v1.4.4 + libmatroska v1.7.1

Video
ID: 1
Format: AVC
Format/Info: Advanced Video Codec
Format profile: High@L4
Format settings: CABAC / 5 Ref Frames
Format settings, CABAC: Yes
Format settings, Reference frames: 5 frames
Codec ID: V_MPEG4/ISO/AVC
Duration: 50 min 6 s
Bit rate: 10.1 Mb/s
Width: 1 920 pixels
Height: 800 pixels
Display aspect ratio: 2.40:1
Frame rate mode: Constant
Frame rate: 23.976 (24000/1001) FPS
Color space: YUV
Chroma subsampling: 4:2:0
Bit depth: 8 bits
Scan type: Progressive
Bits/(Pixel*Frame): 0.275
Stream size: 3.55 GiB (93%)
Language: English
Default: Yes
Forced: No
Color range: Limited
Color primaries: BT.709
Transfer characteristics: BT.709
Matrix coefficients: BT.709

Audio
ID: 2
Format: E-AC-3 JOC
Format/Info: Enhanced AC-3 with Joint Object Coding
Commercial name: Dolby Digital Plus with Dolby Atmos
Codec ID: A_EAC3
Duration: 50 min 6 s
Bit rate mode: Constant
Bit rate: 768 kb/s
Channel(s): 6 channels
Channel layout: L R C LFE Ls Rs
Sampling rate: 48.0 kHz
Frame rate: 31.250 FPS (1536 SPF)
Compression mode: Lossy
Stream size: 275 MiB (7%)
Language: English
Service kind: Complete Main
Default: Yes
Forced: No
Complexity index: 16
Number of dynamic objects: 15
Bed channel count: 1 channel
Bed channel configuration: LFE

Text #1
ID: 3
Format: UTF-8
Codec ID: S_TEXT/UTF8
Codec ID/Info: UTF-8 Plain Text
Duration: 36 min 33 s
Bit rate: 9 b/s
Frame rate: 0.041 FPS
Count of elements: 89
Stream size: 2.58 KiB (0%)
Title: Forced
Language: English
Default: Yes
Forced: Yes

Text #2
ID: 4
Format: UTF-8
Codec ID: S_TEXT/UTF8
Codec ID/Info: UTF-8 Plain Text
Duration: 47 min 28 s
Bit rate: 59 b/s
Frame rate: 0.225 FPS
Count of elements: 640
Stream size: 20.8 KiB (0%)
Language: English
Default: No
Forced: No

Text #3
ID: 5
Format: UTF-8
Codec ID: S_TEXT/UTF8
Codec ID/Info: UTF-8 Plain Text
Duration: 48 min 24 s
Bit rate: 71 b/s
Frame rate: 0.254 FPS
Count of elements: 738
Stream size: 25.3 KiB (0%)
Title: SDH
Language: English
Default: No
Forced: No

Text #4
ID: 6
Format: UTF-8
Codec ID: S_TEXT/UTF8
Codec ID/Info: UTF-8 Plain Text
Duration: 49 min 50 s
Bit rate: 87 b/s
Frame rate: 0.214 FPS
Count of elements: 640
Stream size: 31.9 KiB (0%)
Language: Arabic
Default: No
Forced: No

Text #5
ID: 7
Format: UTF-8
Codec ID: S_TEXT/UTF8
Codec ID/Info: UTF-8 Plain Text
Duration: 49 min 50 s
Bit rate: 72 b/s
Frame rate: 0.165 FPS
Count of elements: 492
Stream size: 26.4 KiB (0%)
Language: Bulgarian
Default: No
Forced: No

Text #6
ID: 8
Format: UTF-8
Codec ID: S_TEXT/UTF8
Codec ID/Info: UTF-8 Plain Text
Duration: 49 min 50 s
Bit rate: 52 b/s
Frame rate: 0.215 FPS
Count of elements: 642
Stream size: 19.1 KiB (0%)
Title: Simplified
Language: Chinese (Simplified)
Default: No
Forced: No

Text #7
ID: 9
Format: UTF-8
Codec ID: S_TEXT/UTF8
Codec ID/Info: UTF-8 Plain Text
Duration: 49 min 50 s
Bit rate: 51 b/s
Frame rate: 0.215 FPS
Count of elements: 643
Stream size: 18.8 KiB (0%)
Title: Traditional
Language: Chinese (Traditional)
Default: No
Forced: No

Text #8
ID: 10
Format: UTF-8
Codec ID: S_TEXT/UTF8
Codec ID/Info: UTF-8 Plain Text
Duration: 49 min 50 s
Bit rate: 48 b/s
Frame rate: 0.200 FPS
Count of elements: 598
Stream size: 17.8 KiB (0%)
Language: Czech
Default: No
Forced: No

Text #9
ID: 11
Format: UTF-8
Codec ID: S_TEXT/UTF8
Codec ID/Info: UTF-8 Plain Text
Duration: 49 min 50 s
Bit rate: 54 b/s
Frame rate: 0.196 FPS
Count of elements: 586
Stream size: 20.0 KiB (0%)
Language: Danish
Default: No
Forced: No

Text #10
ID: 12
Format: UTF-8
Codec ID: S_TEXT/UTF8
Codec ID/Info: UTF-8 Plain Text
Duration: 48 min 34 s
Bit rate: 51 b/s
Frame rate: 0.216 FPS
Count of elements: 629
Stream size: 18.4 KiB (0%)
Language: German
Default: No
Forced: No

Text #11
ID: 13
Format: UTF-8
Codec ID: S_TEXT/UTF8
Codec ID/Info: UTF-8 Plain Text
Duration: 49 min 50 s
Bit rate: 87 b/s
Frame rate: 0.210 FPS
Count of elements: 628
Stream size: 31.8 KiB (0%)
Language: Greek
Default: No
Forced: No

Text #12
ID: 14
Format: UTF-8
Codec ID: S_TEXT/UTF8
Codec ID/Info: UTF-8 Plain Text
Duration: 49 min 50 s
Bit rate: 55 b/s
Frame rate: 0.216 FPS
Count of elements: 645
Stream size: 20.3 KiB (0%)
Title: Latin American
Language: Spanish (Latin America)
Default: No
Forced: No

Text #13
ID: 15
Format: UTF-8
Codec ID: S_TEXT/UTF8
Codec ID/Info: UTF-8 Plain Text
Duration: 49 min 50 s
Bit rate: 54 b/s
Frame rate: 0.215 FPS
Count of elements: 644
Stream size: 20.1 KiB (0%)
Language: Spanish (ES)
Default: No
Forced: No

Text #14
ID: 16
Format: UTF-8
Codec ID: S_TEXT/UTF8
Codec ID/Info: UTF-8 Plain Text
Duration: 49 min 50 s
Bit rate: 50 b/s
Frame rate: 0.199 FPS
Count of elements: 595
Stream size: 18.4 KiB (0%)
Language: Estonian
Default: No
Forced: No

Text #15
ID: 17
Format: UTF-8
Codec ID: S_TEXT/UTF8
Codec ID/Info: UTF-8 Plain Text
Duration: 49 min 50 s
Bit rate: 50 b/s
Frame rate: 0.196 FPS
Count of elements: 587
Stream size: 18.4 KiB (0%)
Language: Finnish
Default: No
Forced: No

Text #16
ID: 18
Format: UTF-8
Codec ID: S_TEXT/UTF8
Codec ID/Info: UTF-8 Plain Text
Duration: 48 min 47 s
Bit rate: 49 b/s
Frame rate: 0.227 FPS
Count of elements: 665
Stream size: 17.6 KiB (0%)
Title: Canadian
Language: French (CA)
Default: No
Forced: No

Text #17
ID: 19
Format: UTF-8
Codec ID: S_TEXT/UTF8
Codec ID/Info: UTF-8 Plain Text
Duration: 48 min 47 s
Bit rate: 49 b/s
Frame rate: 0.227 FPS
Count of elements: 665
Stream size: 17.6 KiB (0%)
Language: French (FR)
Default: No
Forced: No

Text #18
ID: 20
Format: UTF-8
Codec ID: S_TEXT/UTF8
Codec ID/Info: UTF-8 Plain Text
Duration: 49 min 50 s
Bit rate: 80 b/s
Frame rate: 0.215 FPS
Count of elements: 642
Stream size: 29.3 KiB (0%)
Language: Hebrew
Default: No
Forced: No

Text #19
ID: 21
Format: UTF-8
Codec ID: S_TEXT/UTF8
Codec ID/Info: UTF-8 Plain Text
Duration: 49 min 50 s
Bit rate: 158 b/s
Frame rate: 0.215 FPS
Count of elements: 643
Stream size: 57.7 KiB (0%)
Language: Hindi
Default: No
Forced: No

Text #20
ID: 22
Format: UTF-8
Codec ID: S_TEXT/UTF8
Codec ID/Info: UTF-8 Plain Text
Duration: 49 min 50 s
Bit rate: 52 b/s
Frame rate: 0.213 FPS
Count of elements: 636
Stream size: 19.1 KiB (0%)
Language: Hungarian
Default: No
Forced: No

Text #21
ID: 23
Format: UTF-8
Codec ID: S_TEXT/UTF8
Codec ID/Info: UTF-8 Plain Text
Duration: 49 min 50 s
Bit rate: 55 b/s
Frame rate: 0.215 FPS
Count of elements: 642
Stream size: 20.2 KiB (0%)
Language: Indonesian
Default: No
Forced: No

Text #22
ID: 24
Format: UTF-8
Codec ID: S_TEXT/UTF8
Codec ID/Info: UTF-8 Plain Text
Duration: 49 min 45 s
Bit rate: 54 b/s
Frame rate: 0.199 FPS
Count of elements: 593
Stream size: 20.0 KiB (0%)
Language: Italian
Default: No
Forced: No

Text #23
ID: 25
Format: UTF-8
Codec ID: S_TEXT/UTF8
Codec ID/Info: UTF-8 Plain Text
Duration: 49 min 55 s
Bit rate: 40 b/s
Frame rate: 0.221 FPS
Count of elements: 663
Stream size: 14.7 KiB (0%)
Language: Japanese
Default: No
Forced: No

Text #24
ID: 26
Format: UTF-8
Codec ID: S_TEXT/UTF8
Codec ID/Info: UTF-8 Plain Text
Duration: 49 min 50 s
Bit rate: 62 b/s
Frame rate: 0.215 FPS
Count of elements: 643
Stream size: 22.8 KiB (0%)
Language: Korean
Default: No
Forced: No

Text #25
ID: 27
Format: UTF-8
Codec ID: S_TEXT/UTF8
Codec ID/Info: UTF-8 Plain Text
Duration: 49 min 50 s
Bit rate: 53 b/s
Frame rate: 0.213 FPS
Count of elements: 638
Stream size: 19.5 KiB (0%)
Language: Lithuanian
Default: No
Forced: No

Text #26
ID: 28
Format: UTF-8
Codec ID: S_TEXT/UTF8
Codec ID/Info: UTF-8 Plain Text
Duration: 49 min 50 s
Bit rate: 55 b/s
Frame rate: 0.212 FPS
Count of elements: 634
Stream size: 20.2 KiB (0%)
Language: Latvian
Default: No
Forced: No

Text #27
ID: 29
Format: UTF-8
Codec ID: S_TEXT/UTF8
Codec ID/Info: UTF-8 Plain Text
Duration: 49 min 50 s
Bit rate: 51 b/s
Frame rate: 0.214 FPS
Count of elements: 639
Stream size: 18.9 KiB (0%)
Language: Malay
Default: No
Forced: No

Text #28
ID: 30
Format: UTF-8
Codec ID: S_TEXT/UTF8
Codec ID/Info: UTF-8 Plain Text
Duration: 49 min 50 s
Bit rate: 46 b/s
Frame rate: 0.182 FPS
Count of elements: 543
Stream size: 17.1 KiB (0%)
Language: Dutch
Default: No
Forced: No

Text #29
ID: 31
Format: UTF-8
Codec ID: S_TEXT/UTF8
Codec ID/Info: UTF-8 Plain Text
Duration: 49 min 50 s
Bit rate: 48 b/s
Frame rate: 0.191 FPS
Count of elements: 572
Stream size: 17.9 KiB (0%)
Language: Norwegian
Default: No
Forced: No

Text #30
ID: 32
Format: UTF-8
Codec ID: S_TEXT/UTF8
Codec ID/Info: UTF-8 Plain Text
Duration: 49 min 50 s
Bit rate: 51 b/s
Frame rate: 0.213 FPS
Count of elements: 638
Stream size: 18.8 KiB (0%)
Language: Polish
Default: No
Forced: No

Text #31
ID: 33
Format: UTF-8
Codec ID: S_TEXT/UTF8
Codec ID/Info: UTF-8 Plain Text
Duration: 49 min 50 s
Bit rate: 57 b/s
Frame rate: 0.213 FPS
Count of elements: 638
Stream size: 21.2 KiB (0%)
Language: Portuguese
Default: No
Forced: No

Text #32
ID: 34
Format: UTF-8
Codec ID: S_TEXT/UTF8
Codec ID/Info: UTF-8 Plain Text
Duration: 49 min 50 s
Bit rate: 52 b/s
Frame rate: 0.207 FPS
Count of elements: 620
Stream size: 19.3 KiB (0%)
Title: Brazilian
Language: Portuguese (BR)
Default: No
Forced: No

Text #33
ID: 35
Format: UTF-8
Codec ID: S_TEXT/UTF8
Codec ID/Info: UTF-8 Plain Text
Duration: 49 min 50 s
Bit rate: 88 b/s
Frame rate: 0.216 FPS
Count of elements: 645
Stream size: 32.3 KiB (0%)
Language: Russian
Default: No
Forced: No

Text #34
ID: 36
Format: UTF-8
Codec ID: S_TEXT/UTF8
Codec ID/Info: UTF-8 Plain Text
Duration: 49 min 50 s
Bit rate: 51 b/s
Frame rate: 0.215 FPS
Count of elements: 643
Stream size: 19.0 KiB (0%)
Language: Slovak
Default: No
Forced: No

Text #35
ID: 37
Format: UTF-8
Codec ID: S_TEXT/UTF8
Codec ID/Info: UTF-8 Plain Text
Duration: 49 min 50 s
Bit rate: 44 b/s
Frame rate: 0.181 FPS
Count of elements: 542
Stream size: 16.1 KiB (0%)
Language: Slovenian
Default: No
Forced: No

Text #36
ID: 38
Format: UTF-8
Codec ID: S_TEXT/UTF8
Codec ID/Info: UTF-8 Plain Text
Duration: 49 min 50 s
Bit rate: 49 b/s
Frame rate: 0.190 FPS
Count of elements: 569
Stream size: 18.0 KiB (0%)
Language: Swedish
Default: No
Forced: No

Text #37
ID: 39
Format: UTF-8
Codec ID: S_TEXT/UTF8
Codec ID/Info: UTF-8 Plain Text
Duration: 49 min 50 s
Bit rate: 178 b/s
Frame rate: 0.214 FPS
Count of elements: 641
Stream size: 65.0 KiB (0%)
Language: Tamil
Default: No
Forced: No

Text #38
ID: 40
Format: UTF-8
Codec ID: S_TEXT/UTF8
Codec ID/Info: UTF-8 Plain Text
Duration: 49 min 50 s
Bit rate: 167 b/s
Frame rate: 0.215 FPS
Count of elements: 642
Stream size: 61.3 KiB (0%)
Language: Telugu
Default: No
Forced: No

Text #39
ID: 41
Format: UTF-8
Codec ID: S_TEXT/UTF8
Codec ID/Info: UTF-8 Plain Text
Duration: 49 min 50 s
Bit rate: 136 b/s
Frame rate: 0.215 FPS
Count of elements: 642
Stream size: 49.9 KiB (0%)
Language: Thai
Default: No
Forced: No

Text #40
ID: 42
Format: UTF-8
Codec ID: S_TEXT/UTF8
Codec ID/Info: UTF-8 Plain Text
Duration: 49 min 50 s
Bit rate: 55 b/s
Frame rate: 0.208 FPS
Count of elements: 621
Stream size: 20.4 KiB (0%)
Language: Turkish
Default: No
Forced: No

Text #41
ID: 43
Format: UTF-8
Codec ID: S_TEXT/UTF8
Codec ID/Info: UTF-8 Plain Text
Duration: 49 min 50 s
Bit rate: 81 b/s
Frame rate: 0.215 FPS
Count of elements: 642
Stream size: 29.8 KiB (0%)
Language: Ukrainian
Default: No
Forced: No

Text #42
ID: 44
Format: UTF-8
Codec ID: S_TEXT/UTF8
Codec ID/Info: UTF-8 Plain Text
Duration: 49 min 50 s
Bit rate: 72 b/s
Frame rate: 0.215 FPS
Count of elements: 643
Stream size: 26.3 KiB (0%)
Language: Vietnamese
Default: No
Forced: No

Text #43
ID: 45
Format: UTF-8
Codec ID: S_TEXT/UTF8
Codec ID/Info: UTF-8 Plain Text
Duration: 49 min 50 s
Bit rate: 48 b/s
Frame rate: 0.215 FPS
Count of elements: 643
Stream size: 17.6 KiB (0%)
Title: Traditional
Language: Cantonese (Hant)
Default: No
Forced: No
ssl  EZTV RSS EZTV Status | EZTV API | DMCA: [email protected]