eztv1.xyz | eztvstatus.org
Search title:  
TV Packs only
 

Smartless on the Road S01E01 Tuxedos and Cool Sunglasses 720p AMZN WEB-DL DDP2 0 H 264-NTb EZTV

Episode Breakdown
SmartLess: On the Road
SmartLess: On the Road TV Show S01E01

Season: 1
Episode: 1
Air Date: 23 May, 2023
Download Links
     Torrent Download     Magnet Download
     Anonymous Download
Added 9 months ago by eztv (verified).
Tracker Statistics
Seeds: 2
Peers: 1
Stats generated @ 18:22 on 16th Jul 2024
Torrent Info
Torrent File: Smartless.on.the.Road.S01E01.Tuxedos.and.Cool.Sunglasses.720p.AMZN.WEB-DL.DDP2.0.H.264-NTb[eztv.re].mkv
Torrent Hash: 4692F5B7B452E5FD70F72CA384547E905372D627
Filesize: 1.66 GB
Released: 18th Sep 2023

File Format: MKV (Matroska)
Resolution: 1280x720 px
Aspect Ratio: 16:9

SmartLess: On the Road S01E01 - Tuxedos and Cool Sunglassess

Summary:

Will, Jason, and Sean kick off the tour in Washington, DC, and nervously prep for their first live show ever with special guest Will Ferrell.



Smartless on the Road S01E01 Tuxedos and Cool Sunglasses 720p AMZN WEB-DL DDP2 0 H 264-NTb EZTV
SmartLess: On the Road S1E1 Screenshot


General
Unique ID: 228227540604526230258014523880816627070 (0xABB30684714300D42428B86A695DCD7E)
Complete name: Smartless.on.the.Road.S01E01.Tuxedos.and.Cool.Sunglasses.720p.AMZN.WEB-DL.DDP2.0.H.264-NTb.mkv
Format: Matroska
Format version: Version 4
File size: 1.66 GiB
Duration: 46 min 41 s
Overall bit rate: 5 076 kb/s
Frame rate: 24.000 FPS
Writing application: mkvmerge v69.0.0 ('Day And Age') 64-bit
Writing library: libebml v1.4.2 + libmatroska v1.6.4

Video
ID: 1
Format: AVC
Format/Info: Advanced Video Codec
Format profile: [email protected]
Format settings: CABAC / 4 Ref Frames
Format settings, CABAC: Yes
Format settings, Reference frames: 4 frames
Format settings, GOP: M=4, N=48
Codec ID: V_MPEG4/ISO/AVC
Duration: 46 min 41 s
Bit rate mode: Constant
Bit rate: 4 849 kb/s
Nominal bit rate: 6 000 kb/s
Width: 1 280 pixels
Height: 576 pixels
Display aspect ratio: 2.2:1
Frame rate mode: Constant
Frame rate: 24.000 FPS
Color space: YUV
Chroma subsampling: 4:2:0
Bit depth: 8 bits
Scan type: Progressive
Bits/(Pixel*Frame): 0.274
Stream size: 1.58 GiB (96%)
Default: Yes
Forced: No
Color range: Limited
Color primaries: BT.709
Transfer characteristics: BT.709
Matrix coefficients: BT.709

Audio
ID: 2
Format: E-AC-3
Format/Info: Enhanced AC-3
Commercial name: Dolby Digital Plus
Codec ID: A_EAC3
Duration: 46 min 41 s
Bit rate mode: Constant
Bit rate: 224 kb/s
Channel(s): 2 channels
Channel layout: L R
Sampling rate: 48.0 kHz
Frame rate: 31.250 FPS (1536 SPF)
Compression mode: Lossy
Stream size: 74.8 MiB (4%)
Language: English (US)
Service kind: Complete Main
Default: Yes
Forced: No

Text #1
ID: 3
Format: UTF-8
Codec ID: S_TEXT/UTF8
Codec ID/Info: UTF-8 Plain Text
Duration: 45 min 25 s
Bit rate: 104 b/s
Frame rate: 0.374 FPS
Count of elements: 1019
Stream size: 34.9 KiB (0%)
Language: English
Default: No
Forced: No

Text #2
ID: 4
Format: UTF-8
Codec ID: S_TEXT/UTF8
Codec ID/Info: UTF-8 Plain Text
Duration: 45 min 25 s
Bit rate: 117 b/s
Frame rate: 0.405 FPS
Count of elements: 1105
Stream size: 39.0 KiB (0%)
Title: SDH
Language: English
Default: No
Forced: No
ssl  EZTV RSS EZTV Status | EZTV API | DMCA: [email protected]