eztv1.xyz | eztvstatus.org
Search title:  
TV Packs only
 

Bobs Burgers S14E07 The Raccoon King and I 1080p HULU WEB-DL DDP5 1 H 264-NTb EZTV

Episode Breakdown
Bob's Burgers
Bob's Burgers TV Show S14E07

Season: 14
Episode: 7
Air Date: 19 November, 2023
Download Links
     Torrent Download     Magnet Download
     Anonymous Download
Added 11 days ago by eztv (verified).
Tracker Statistics
Seeds: 32
Peers: 5
Stats generated @ 05:41 on 2nd Dec 2023
Torrent Info
Torrent File: Bobs.Burgers.S14E07.The.Raccoon.King.and.I.1080p.HULU.WEB-DL.DDP5.1.H.264-NTb[eztv.re].mkv
Torrent Hash: B1444359009B0BDD9F816C9B2B27D49B38339393
Filesize: 275 MB
Released: 21st Nov 2023

File Format: MKV (Matroska)
Resolution: 1920x1080 px
Aspect Ratio: 16:9
Alternate Releases S L
Bobs Burgers S14E07 720p WEB h264-BAE 333 24
Bobs Burgers S14E07 480p x264-mSD 26 5
Bobs Burgers S14E07 720p HEVC x265-MeGusta 35 4
Bobs Burgers S14E07 WEBRip x264-XEN0N 17 6
Bobs Burgers S14E07 iNTERNAL 1080p WEB h264-EDITH 93 12
Bobs Burgers S14E07 XviD-AFG 10 3
Bobs Burgers S14E07 iNTERNAL XviD-AFG 6 2

Bob's Burgers S14E07 - The (Raccoon) King and I

Summary:

During a neighborhood block party, Linda makes a mistake that could threaten the life of her favorite alley raccoon.



Bobs Burgers S14E07 The Raccoon King and I 1080p HULU WEB-DL DDP5 1 H 264-NTb EZTV
Bob's Burgers S14E7 Screenshot


General
Unique ID: 198531112689353979967793306434821170770 (0x955BB394549DFD9CDA1EBA80E7282652)
Complete name: Bobs.Burgers.S14E07.The.Raccoon.King.and.I.1080p.HULU.WEB-DL.DDP5.1.H.264-NTb.mkv
Format: Matroska
Format version: Version 4
File size: 275 MiB
Duration: 20 min 57 s
Overall bit rate: 1 833 kb/s
Frame rate: 23.976 FPS
Writing application: mkvmerge v80.0 ('Roundabout') 64-bit
Writing library: libebml v1.4.4 + libmatroska v1.7.1

Video
ID: 1
Format: AVC
Format/Info: Advanced Video Codec
Format profile: High@L4
Format settings: CABAC / 4 Ref Frames
Format settings, CABAC: Yes
Format settings, Reference frames: 4 frames
Codec ID: V_MPEG4/ISO/AVC
Duration: 20 min 57 s
Bit rate: 1 574 kb/s
Width: 1 920 pixels
Height: 1 080 pixels
Display aspect ratio: 16:9
Frame rate mode: Constant
Frame rate: 23.976 (24000/1001) FPS
Color space: YUV
Chroma subsampling: 4:2:0
Bit depth: 8 bits
Scan type: Progressive
Bits/(Pixel*Frame): 0.032
Stream size: 236 MiB (86%)
Default: Yes
Forced: No

Audio
ID: 2
Format: E-AC-3
Format/Info: Enhanced AC-3
Commercial name: Dolby Digital Plus
Codec ID: A_EAC3
Duration: 20 min 57 s
Bit rate mode: Constant
Bit rate: 256 kb/s
Channel(s): 6 channels
Channel layout: L R C LFE Ls Rs
Sampling rate: 48.0 kHz
Frame rate: 31.250 FPS (1536 SPF)
Compression mode: Lossy
Stream size: 38.4 MiB (14%)
Language: English
Service kind: Complete Main
Default: Yes
Forced: No

Text #1
ID: 3
Format: UTF-8
Codec ID: S_TEXT/UTF8
Codec ID/Info: UTF-8 Plain Text
Duration: 20 min 35 s
Bit rate: 150 b/s
Frame rate: 0.527 FPS
Count of elements: 651
Stream size: 22.7 KiB (0%)
Language: English
Default: No
Forced: No

Text #2
ID: 4
Format: UTF-8
Codec ID: S_TEXT/UTF8
Codec ID/Info: UTF-8 Plain Text
Duration: 20 min 53 s
Bit rate: 153 b/s
Frame rate: 0.525 FPS
Count of elements: 658
Stream size: 23.4 KiB (0%)
Title: SDH
Language: English
Default: No
Forced: No

Menu
00:00:00.000: en:Chapter 1
00:06:32.013: en:Chapter 2
00:12:54.002: en:Chapter 3
00:16:19.013: en:Chapter 4

ssl  EZTV RSS EZTV Status | EZTV API | DMCA: [email protected]