eztv1.xyz | eztvstatus.org
Search title:  
TV Packs only
 

Fishtank S01E07 Mad Women 1080p WEB-DL AAC2 0 H 264-NTb EZTV

Episode Breakdown
Fishtank
Fishtank TV Show S01E07

Season: 1
Episode: 7
Download Links
     Torrent Download     Magnet Download
     Anonymous Download
Added 7 months ago by eztv (verified).
Tracker Statistics
Seeds: 2
Peers: 1
Stats generated @ 17:17 on 16th Jul 2024
Torrent Info
Torrent File: Fishtank.S01E07.Mad.Women.1080p.WEB-DL.AAC2.0.H.264-NTb[eztv.re].mp4
Torrent Hash: 1E3E62CF725A4BBDBC50B8B9C8DC31802F5E25A0
Filesize: 761 MB
Released: 21st Nov 2023

File Format: MP4 (MPEG-4)
Resolution: 1920x1080 px
Aspect Ratio: 16:9
Alternate Releases S L
Fishtank S01E07 Extra Footage 1080p WEB-DL AAC2 0 H 264-NTb 3 1

Episode Description
Fishtank S01E07 Mad Women 1080p WEB-DL AAC2 0 H 264-NTb EZTV
Fishtank S1E7 Screenshot


General
Complete name: Fishtank.S01E07.Mad.Women.1080p.WEB-DL.AAC2.0.H.264-NTb.mp4
Format: MPEG-4
Format profile: Base Media / Version 2
Codec ID: mp42 (isom/iso2/avc1/mp41/mp42)
File size: 761 MiB
Duration: 1 h 3 min
Overall bit rate mode: Variable
Overall bit rate: 1 666 kb/s
Frame rate: 29.970 FPS

Video
ID: 1
Format: AVC
Format/Info: Advanced Video Codec
Format profile: Main@L4
Format settings: CABAC / 1 Ref Frames
Format settings, CABAC: Yes
Format settings, Reference frames: 1 frame
Codec ID: avc1
Codec ID/Info: Advanced Video Coding
Duration: 1 h 3 min
Bit rate mode: Variable
Bit rate: 1 534 kb/s
Maximum bit rate: 4 481 kb/s
Width: 1 920 pixels
Height: 1 080 pixels
Display aspect ratio: 16:9
Frame rate mode: Constant
Frame rate: 29.970 (30000/1001) FPS
Color space: YUV
Chroma subsampling: 4:2:0
Bit depth: 8 bits
Scan type: Progressive
Bits/(Pixel*Frame): 0.025
Stream size: 700 MiB (92%)
Codec configuration box: avcC

Audio
ID: 2
Format: AAC LC
Format/Info: Advanced Audio Codec Low Complexity
Codec ID: mp4a-40-2
Duration: 1 h 3 min
Bit rate mode: Variable
Bit rate: 129 kb/s
Channel(s): 2 channels
Channel layout: L R
Sampling rate: 48.0 kHz
Frame rate: 46.875 FPS (1024 SPF)
Compression mode: Lossy
Stream size: 58.9 MiB (8%)
Default: Yes
Alternate group: 1

ssl  EZTV RSS EZTV Status | EZTV API | DMCA: [email protected]