eztv1.xyz | eztvstatus.org
Search title:  
TV Packs only
 

A Little Curious S01E24 720p WEB-DL AAC2 0 H 264-NTb EZTV

Episode Breakdown
A Little Curious
A Little Curious TV Show S01E24

Season: 1
Episode: 24
Download Links
     Torrent Download     Magnet Download
     Anonymous Download
Added 7 months ago by eztv (verified).
Tracker Statistics
Seeds: 0
Peers: 0
Stats generated @ 17:20 on 16th Jul 2024
Torrent Info
Torrent File: A.Little.Curious.S01E24.720p.WEB-DL.AAC2.0.H.264-NTb[EZTVx.to].mkv
Torrent Hash: 91E52694D23CBA356471C4AC7082C3892E4C09F5
Filesize: 275 MB
Released: 14th Dec 2023

File Format: MKV (Matroska)
Resolution: 1280x720 px
Aspect Ratio: 16:9

Episode Description
A Little Curious S01E24 720p WEB-DL AAC2 0 H 264-NTb EZTV
A Little Curious S1E24 Screenshot


General
Unique ID: 133327382075234877131561586050263659431 (0x644DEB7508AC590A6A8DC8028113B3A7)
Complete name: A.Little.Curious.S01E24.720p.WEB-DL.AAC2.0.H.264-NTb.mkv
Format: Matroska
Format version: Version 4
File size: 275 MiB
Duration: 24 min 9 s
Overall bit rate mode: Variable
Overall bit rate: 1 592 kb/s
Frame rate: 29.970 FPS
Encoded date: 2023-12-14 18:34:31 UTC
Writing application: mkvmerge v65.0.0 ('Too Much') 64-bit
Writing library: libebml v1.4.2 + libmatroska v1.6.4
Cover: Yes
Attachments: cover.png

Video
ID: 1
Format: AVC
Format/Info: Advanced Video Codec
Format profile: [email protected]
Format settings: CABAC / 4 Ref Frames
Format settings, CABAC: Yes
Format settings, Reference frames: 4 frames
Codec ID: V_MPEG4/ISO/AVC
Duration: 24 min 9 s
Bit rate mode: Variable
Bit rate: 1 489 kb/s
Maximum bit rate: 4 000 kb/s
Width: 960 pixels
Height: 720 pixels
Display aspect ratio: 4:3
Frame rate mode: Constant
Frame rate: 29.970 (30000/1001) FPS
Color space: YUV
Chroma subsampling: 4:2:0
Bit depth: 8 bits
Scan type: Progressive
Bits/(Pixel*Frame): 0.072
Stream size: 257 MiB (94%)
Writing library: x264 core 164
Encoding settings: cabac=1 / ref=4 / deblock=1:0:0 / analyse=0x3:0x133 / me=umh / subme=10 / psy=1 / psy_rd=1.00:0.00 / mixed_ref=1 / me_range=24 / chroma_me=1 / trellis=2 / 8x8dct=1 / cqm=0 / deadzone=21,11 / fast_pskip=1 / chroma_qp_offset=-2 / threads=22 / lookahead_threads=1 / sliced_threads=0 / nr=0 / decimate=1 / interlaced=0 / bluray_compat=0 / stitchable=1 / constrained_intra=0 / bframes=3 / b_pyramid=2 / b_adapt=2 / b_bias=0 / direct=3 / weightb=1 / open_gop=0 / weightp=2 / keyint=120 / keyint_min=61 / scenecut=0 / intra_refresh=0 / rc_lookahead=120 / rc=crf / mbtree=1 / crf=21.0 / qcomp=0.60 / qpmin=0 / qpmax=69 / qpstep=4 / vbv_maxrate=4000 / vbv_bufsize=16000 / crf_max=0.0 / nal_hrd=vbr / filler=0 / ip_ratio=1.40 / aq=1:1.00
Default: Yes
Forced: No
Color range: Limited
Color primaries: BT.709
Transfer characteristics: BT.709
Matrix coefficients: BT.709

Audio
ID: 2
Format: AAC LC SBR
Format/Info: Advanced Audio Codec Low Complexity with Spectral Band Replication
Commercial name: HE-AAC
Format settings: Explicit
Codec ID: A_AAC-2
Duration: 24 min 9 s
Bit rate: 62.7 kb/s
Channel(s): 2 channels
Channel layout: L R
Sampling rate: 48.0 kHz
Frame rate: 23.438 FPS (2048 SPF)
Compression mode: Lossy
Stream size: 10.8 MiB (4%)
Language: English
Default: Yes
Forced: No

Text
ID: 3
Format: UTF-8
Codec ID: S_TEXT/UTF8
Codec ID/Info: UTF-8 Plain Text
Duration: 22 min 4 s
Bit rate: 52 b/s
Frame rate: 0.235 FPS
Count of elements: 311
Stream size: 8.41 KiB (0%)
Language: English
Default: Yes
Forced: No
ssl  EZTV RSS EZTV Status | EZTV API | DMCA: [email protected]